<?xml version="1.0" standalone="no"?>
<!DOCTYPE svg PUBLIC "-//W3C//DTD SVG 1.1//EN" "http://www.w3.org/Graphics/SVG/1.1/DTD/svg11.dtd" >
<svg xmlns="http://www.w3.org/2000/svg">
<metadata>Generated by IcoMoon</metadata>
<defs>
<font id="hsbc-icons" horiz-adv-x="1024">
<font-face units-per-em="1024" ascent="960" descent="-64" />
<missing-glyph horiz-adv-x="1024" />
<glyph unicode="&#x20;" horiz-adv-x="512" d="" />
<glyph unicode="&#xe900;" glyph-name="account-active" d="M938.656 618.656h-853.344c-46.944 0-85.344-38.4-85.344-85.344v-512c0-46.944 38.4-85.344 85.344-85.344h853.344c46.944 0 85.344 38.4 85.344 85.344v512c0 46.944-38.4 85.344-85.344 85.344zM284.448 277.344h-113.792v113.792h113.792v-113.792zM910.208 721.056c0 37.728-30.56 68.256-68.256 68.256h-659.904c-37.728 0-68.256-30.56-68.256-68.256v-17.056h796.448v17.056zM796.448 891.744c0 37.728-30.56 68.256-68.256 68.256h-432.352c-37.728 0-68.256-30.56-68.256-68.256v-17.056h568.896v17.056z" />
<glyph unicode="&#xe901;" glyph-name="account" d="M938.656 675.552h-853.344c-46.944 0-85.344-38.4-85.344-85.344v-568.896c0-46.944 38.4-85.344 85.344-85.344h853.344c46.944 0 85.344 38.4 85.344 85.344v568.896c0 46.944-38.4 85.344-85.344 85.344zM955.744 21.344c0-9.28-7.808-17.056-17.056-17.056h-853.344c-9.28 0-17.056 7.808-17.056 17.056v568.896c0 9.28 7.808 17.056 17.056 17.056h853.344c9.28 0 17.056-7.808 17.056-17.056v-568.896zM170.656 277.344h113.792v113.792h-113.792v-113.792zM841.952 812.096h-659.904c-37.728 0-68.256-30.56-68.256-68.256h796.448c0 37.728-30.56 68.256-68.256 68.256zM728.192 960h-432.352c-37.728 0-68.256-30.56-68.256-68.256h568.896c0 37.728-30.56 68.256-68.256 68.256z" />
<glyph unicode="&#xe902;" glyph-name="add-circle-active" d="M512 960c-282.784 0-512-229.216-512-512s229.216-512 512-512 512 229.216 512 512-229.216 512-512 512zM796.448 396.8h-233.248v-233.248h-102.4v233.248h-233.248v102.4h233.248v233.248h102.4v-233.248h233.248v-102.4z" />
<glyph unicode="&#xe903;" glyph-name="add-circle" d="M512 960c-282.752 0-512-229.248-512-512s229.248-512 512-512 512 229.248 512 512-229.248 512-512 512zM512 4.256c-244.672 0-443.744 199.040-443.744 443.744s199.040 443.744 443.744 443.744 443.744-199.040 443.744-443.744-199.040-443.744-443.744-443.744zM546.144 732.448h-68.256v-250.304h-250.304v-68.256h250.304v-250.304h68.256v250.304h250.304v68.256h-250.304v250.304z" />
<glyph unicode="&#xe904;" glyph-name="add" d="M1024 482.144h-477.856v477.856h-68.256v-477.856h-477.856v-68.256h477.856v-477.856h68.256v477.856h477.856z" />
<glyph unicode="&#xe905;" glyph-name="alert-active" d="M512-64c58.304 0 108.256 35.168 130.208 85.344h-260.448c21.952-50.176 71.904-85.344 130.208-85.344zM983.776 203.776l-130.432 130.432v270.176c0 186.88-144.032 349.856-330.816 355.488-193.312 5.76-351.872-149.216-351.872-341.216v-284.448l-130.432-130.432c-35.84-35.84-10.464-97.12 40.224-97.12h863.104c50.688 0 76.064 61.28 40.224 97.12z" />
<glyph unicode="&#xe906;" glyph-name="alert" d="M983.776 203.776l-130.432 130.432v270.112c0 186.88-144.032 349.856-330.816 355.488-3.52 0.128-7.040 0.16-10.528 0.16-188.544 0-341.344-152.8-341.344-341.344v-284.448l-130.432-130.432c-35.84-35.84-10.464-97.12 40.224-97.12h292.864c-1.984-9.216-3.52-18.592-3.52-28.448 0-78.56 63.648-142.208 142.208-142.208s142.208 63.648 142.208 142.208c0 9.856-1.536 19.232-3.52 28.448h292.864c50.688 0 76.064 61.28 40.224 97.12zM585.952 78.208c0-40.8-33.152-73.952-73.952-73.952s-73.952 33.152-73.952 73.952c0 10.304 2.784 19.68 6.784 28.448h134.432c3.936-8.768 6.72-18.144 6.72-28.448zM107.904 174.944l131.008 131.008v312.704c0 150.592 122.496 273.056 273.056 273.056l8.416-0.128c145.92-4.384 264.64-133.248 264.64-287.296v-298.368l20.032-19.968 111.040-111.040h-808.224z" />
<glyph unicode="&#xe907;" glyph-name="assets-active" d="M654.208 960l-314.016-313.984c163.776-5.568 292.128-59.904 344.704-141.152h54.656v-340.256h284.448v425.632l-369.792 369.728zM312.896 192c-128.64 0-237.504 29.824-308.736 78.976-2.496-7.232-4.16-14.56-4.16-22.080 0-78.56 140.064-142.208 312.896-142.208s312.896 63.648 312.896 142.208c0 7.52-1.664 14.848-4.16 22.080-71.232-49.152-180.096-78.976-308.736-78.976zM312.896 21.344c-128.64 0-237.504 29.824-308.736 78.976-2.496-7.232-4.16-14.56-4.16-22.080 0-78.56 140.064-142.208 312.896-142.208s312.896 63.648 312.896 142.208c0 7.52-1.664 14.848-4.16 22.080-71.232-49.152-180.096-78.976-308.736-78.976zM312.896 561.792c-172.832 0-312.896-63.648-312.896-142.208s140.064-142.208 312.896-142.208 312.896 63.648 312.896 142.208-140.064 142.208-312.896 142.208z" />
<glyph unicode="&#xe908;" glyph-name="assets" d="M555.968 246.656c-9.344-19.968-89.024-71.744-243.072-71.744-156.096 0-236.096 53.248-243.584 71.904-22.752 9.856-43.36 21.056-61.28 33.632-5.056-10.176-8.032-20.704-8.032-31.584 0-78.56 140.064-142.208 312.896-142.208s312.896 63.648 312.896 142.208c0 10.88-2.944 21.376-8.032 31.584-18.048-12.672-38.784-23.936-61.792-33.792zM555.968 76c-9.344-19.968-89.024-71.744-243.072-71.744-156.096 0-236.096 53.248-243.584 71.904-22.752 9.856-43.36 21.056-61.28 33.632-5.056-10.176-8.032-20.704-8.032-31.584 0-78.56 140.064-142.208 312.896-142.208s312.896 63.648 312.896 142.208c0 10.88-2.944 21.376-8.032 31.584-18.048-12.672-38.784-23.936-61.792-33.792zM654.208 960l-323.584-323.584c31.104-0.672 60.992-3.072 89.312-7.168l234.272 234.208 301.504-301.44v-329.088h-159.296v328.864h-183.232c29.248-19.68 51.776-42.72 66.72-68.256h48.256v-328.864h295.808v425.632l-369.792 369.728zM312.896 561.792c-172.832 0-312.896-63.648-312.896-142.208s140.064-142.208 312.896-142.208 312.896 63.648 312.896 142.208c0 78.56-140.064 142.208-312.896 142.208zM312.896 345.6c-160.256 0-240.928 56.384-244.672 73.6 3.744 17.92 84.416 74.304 244.672 74.304s240.928-56.384 244.672-73.6c-3.744-17.92-84.416-74.304-244.672-74.304z" />
<glyph unicode="&#xe909;" glyph-name="back" d="M406.912 846.208l-398.336-398.208 398.336-398.208h96.48l-364.096 364.096h884.672v68.256h-884.672l364.096 364.096z" />
<glyph unicode="&#xe90a;" glyph-name="barcode" d="M955.744 903.104v-910.208h68.256v910.208h-68.256zM819.2-7.104h68.256v910.208h-68.256v-910.208zM614.4-7.104h136.544v910.208h-136.544v-910.208zM477.856-7.104h68.256v910.208h-68.256v-910.208zM136.544-7.104h68.256v910.208h-68.256v-910.208zM0-7.104h68.256v910.208h-68.256v-910.208zM273.056-7.104h136.544v910.208h-136.544v-910.208z" />
<glyph unicode="&#xe90b;" d="M1024 448c0-282.784-229.216-512-512-512s-512 229.216-512 512c0 282.784 229.216 512 512 512s512-229.216 512-512z" />
<glyph unicode="&#xe90c;" d="M126.976 111.232c15.008-17.12 31.104-33.216 48.256-48.256l721.792 721.792c-15.008 17.12-31.104 33.216-48.256 48.256l-721.792-721.792z" />
<glyph unicode="&#xe90d;" glyph-name="block" d="M512 960c-282.752 0-512-229.216-512-512s229.248-512 512-512 512 229.216 512 512-229.248 512-512 512zM512 891.744c110.080 0 210.72-40.512 288.32-107.136l-624.928-624.992c-66.56 77.664-107.136 178.304-107.136 288.384 0 244.672 199.040 443.744 443.744 443.744zM512 4.256c-110.080 0-210.72 40.512-288.32 107.136l624.928 624.992c66.56-77.664 107.136-178.304 107.136-288.384 0-244.672-199.040-443.744-443.744-443.744z" />
<glyph unicode="&#xe90e;" glyph-name="borrowing-active" d="M0-7.104c0-31.296 25.6-56.896 56.896-56.896h625.792c31.296 0 56.896 25.6 56.896 56.896v256h-739.552v-256zM512 163.552h113.792v-85.344h-113.792v85.344zM682.656 504.896h-625.792c-31.296 0-56.896-25.6-56.896-56.896v-113.792h739.552v113.792c0 31.296-25.6 56.896-56.896 56.896zM654.208 960l-369.792-369.792h398.208c78.464 0 142.208-63.84 142.208-142.208v-283.36h199.104v425.632l-369.792 369.728z" />
<glyph unicode="&#xe90f;" glyph-name="borrowing" d="M654.208 960l-369.792-369.728v-17.12h79.424l290.368 290.304 301.504-301.44v-329.088h-147.904v-68.256h216.192v425.632l-369.792 369.728zM654.208 504.896h-568.896c-46.944 0-85.344-38.4-85.344-85.344v-398.208c0-46.944 38.4-85.344 85.344-85.344h568.896c46.944 0 85.344 38.4 85.344 85.344v398.208c0 46.944-38.4 85.344-85.344 85.344zM671.296 21.344c0-9.28-7.808-17.056-17.056-17.056h-568.896c-9.28 0-17.056 7.808-17.056 17.056v244.608h603.008v-244.608zM671.296 334.208h-603.008v85.344c0 9.28 7.808 17.056 17.056 17.056h568.896c9.28 0 17.056-7.808 17.056-17.056v-85.344zM568.896 163.552h-113.792v-68.256h113.792v68.256z" />
<glyph unicode="&#xe910;" glyph-name="calculator-currency-active" d="M512 4.256c-244.672 0-443.744 199.040-443.744 443.744 0 29.184 3.008 57.696 8.416 85.344h-69.248c-4.768-27.712-7.456-56.192-7.456-85.344 0-282.784 229.216-512 512-512 178.176 0 334.976 91.136 426.656 229.216v-166.624l68.256 68.256v210.496h-85.44c-67.008-160.128-225.28-273.056-409.472-273.056zM512 960c-178.176 0-334.976-91.136-426.656-229.216v166.624l-68.256-68.256v-210.496h85.44c67.008 160.192 225.28 273.056 409.472 273.056 244.672 0 443.744-199.040 443.744-443.744 0-29.184-3.008-57.696-8.416-85.344h69.248c4.768 27.712 7.456 56.192 7.456 85.344 0 282.784-229.216 512-512 512zM512 89.6c197.92 0 358.4 160.416 358.4 358.4s-160.48 358.4-358.4 358.4-358.4-160.48-358.4-358.4 160.48-358.4 358.4-358.4zM517.472 401.536l-0.352 0.064-36.192 11.552c-39.776 12.352-123.040 38.24-123.040 129.472 0 65.472 43.52 112.704 111.456 127.488v62.336h85.344v-60.576c68.608-11.936 110.528-55.968 111.456-121.344l-85.344-1.184c-0.16 11.136-0.576 40.832-65.184 40.832-21.792 0-72.416-4.608-72.416-47.488 0-20.928 9.568-31.392 63.36-48.128l36.512-11.616c40.096-12.416 123.040-38.4 123.040-129.472 0-65.472-43.52-112.704-111.456-127.488v-62.4h-85.344v60.576c-68.608 11.936-110.528 55.968-111.456 121.344l85.344 1.184c0.16-11.136 0.576-40.832 65.184-40.832 21.792 0 72.416 4.608 72.416 47.488-0.064 20.992-9.6 31.456-63.36 48.192z" />
<glyph unicode="&#xe911;" glyph-name="calculator-currency" d="M728.192 209.056h157.12c-78.976-122.944-216.64-204.8-373.312-204.8-244.672 0-443.744 199.040-443.744 443.744 0 35.328 4.608 69.472 12.448 102.4h-69.696c-6.88-33.12-11.040-67.232-11.040-102.4 0-282.784 229.216-512 512-512 178.176 0 334.976 91.136 426.656 229.216v-166.624l68.256 68.256v210.496h-210.496l-68.256-68.256zM512 960c-178.176 0-334.976-91.136-426.656-229.216v166.624l-68.256-68.256v-210.496h210.496l68.256 68.256h-157.12c78.976 122.944 216.64 204.8 373.312 204.8 244.672 0 443.744-199.040 443.744-443.744 0-35.328-4.608-69.472-12.448-102.4h69.696c6.88 33.12 11.040 67.232 11.040 102.4 0 282.784-229.216 512-512 512zM508.352 297.344c-72.992 0-73.504 37.024-73.664 49.28l-68.32-1.024c0.896-63.040 42.848-105.088 111.456-114.464v-67.584h68.256v69.184c67.872 12.224 111.456 57.472 111.456 120.672 0 84.992-76.352 108.672-117.376 121.472v0l-36.192 11.552c-54.432 16.896-69.344 29.024-69.344 56.192 0 52 61.952 56.032 80.96 56.032 72.992 0 73.504-37.024 73.664-49.28l68.256 1.024c-0.8 63.040-42.72 105.088-111.392 114.464v67.584h-68.256v-69.184c-67.872-12.224-111.488-57.472-111.488-120.672 0-84.992 76.352-108.672 117.12-121.344l36.224-11.552 0.224-0.128c54.432-16.896 69.344-29.024 69.344-56.192 0-52-61.952-56.032-80.96-56.032z" />
<glyph unicode="&#xe912;" glyph-name="calendar_active" d="M824.896-46.944l182.048 182.048h-182.048zM853.344 903.104v56.896h-113.792v-56.896h-455.104v56.896h-113.792v-56.896h-170.656v-170.656h1024v170.656zM0-64h739.552v284.448h284.448v426.656h-1024v-711.104zM577.408 578.048v-471.392h-85.344v325.056l-55.872-31.616-42.048 74.24 183.232 103.712z" />
<glyph unicode="&#xe913;" glyph-name="calendar" d="M853.344 903.104v56.896h-68.256v-56.896h-546.144v56.896h-68.256v-56.896h-170.656v-967.104h807.808l216.192 216.192v750.944h-170.656zM807.808 32.544v119.648h119.648l-119.648-119.648zM955.744 220.448h-216.192v-216.192h-671.296v614.4h887.456v-398.208zM955.744 686.944h-887.456v147.904h102.4v-73.952h68.256v73.952h546.144v-73.952h68.256v73.952h102.4v-147.904zM500.608 389.472v-282.784h68.256v399.872l-170.496-96.48 33.632-59.456 68.608 38.848z" />
<glyph unicode="&#xe914;" glyph-name="camera_active" d="M938.656 704h-133.792l-70.304 174.080c-13.088 32.32-44.416 53.472-79.296 53.472h-286.496c-34.88 0-66.208-21.152-79.296-53.472l-70.304-174.080h-133.792c-46.944 0-85.344-38.4-85.344-85.344v-568.896c0-46.944 38.4-85.344 85.344-85.344h853.344c46.944 0 85.344 38.4 85.344 85.344v568.896c0 46.944-38.4 85.344-85.344 85.344zM512 106.656c-157.056 0-284.448 127.36-284.448 284.448s127.36 284.448 284.448 284.448 284.448-127.36 284.448-284.448-127.36-284.448-284.448-284.448zM711.104 391.104c0-109.952-89.152-199.104-199.104-199.104s-199.104 89.152-199.104 199.104c0 109.952 89.152 199.104 199.104 199.104s199.104-89.152 199.104-199.104z" />
<glyph unicode="&#xe915;" glyph-name="camera" d="M938.656 704h-133.792l-70.304 174.080c-13.088 32.32-44.416 53.472-79.296 53.472h-286.496c-34.88 0-66.208-21.152-79.296-53.472l-70.304-174.080h-133.792c-46.944 0-85.344-38.4-85.344-85.344v-568.896c0-46.944 38.4-85.344 85.344-85.344h853.344c46.944 0 85.344 38.4 85.344 85.344v568.896c0 46.944-38.4 85.344-85.344 85.344zM955.744 49.792c0-9.28-7.808-17.056-17.056-17.056h-853.344c-9.28 0-17.056 7.808-17.056 17.056v568.896c0 9.28 7.808 17.056 17.056 17.056h179.84l87.616 216.736c2.624 6.592 8.928 10.816 16 10.816h286.496c7.040 0 13.376-4.224 16-10.816l87.616-216.736h179.84c9.28 0 17.056-7.808 17.056-17.056v-568.896zM512 647.104c-141.376 0-256-114.624-256-256s114.624-256 256-256 256 114.624 256 256c0 141.376-114.624 256-256 256zM512 203.392c-103.552 0-187.744 84.192-187.744 187.744s84.192 187.744 187.744 187.744 187.744-84.192 187.744-187.744-84.192-187.744-187.744-187.744z" />
<glyph unicode="&#xe916;" glyph-name="card_active" d="M967.104 618.656h-910.208c-31.296 0-56.896-25.6-56.896-56.896v-113.792h1024v113.792c0 31.296-25.6 56.896-56.896 56.896zM0-7.104c0-31.296 25.6-56.896 56.896-56.896h910.208c31.296 0 56.896 25.6 56.896 56.896v369.792h-1024v-369.792zM739.552 277.344h170.656v-85.344h-170.656v85.344zM827.904 906.624c-13.376 33.152-45.504 53.376-79.296 53.376-10.592 0-21.344-1.984-31.744-6.208l-618.368-249.792h811.36l-81.92 202.624z" />
<glyph unicode="&#xe917;" glyph-name="card_manage_active" d="M170.656 605.344c44.032 17.568 91.936 27.52 142.208 27.52 202.464 0 367.968-156.8 382.592-355.552h271.648c31.296 0 56.896 25.6 56.896 56.896v426.656h-853.344v-155.52zM739.552 675.552h170.656v-85.344h-170.656v85.344zM967.104 960h-739.552c-31.296 0-56.896-25.6-56.896-56.896v-56.896h853.344v56.896c0 31.296-25.6 56.896-56.896 56.896zM543.584 380.8l23.776 56.096-66.432 66.432-56.096-23.776c-19.808 11.264-40.608 19.904-62.112 25.76l-22.816 56.448h-93.984l-22.816-56.448c-21.504-5.856-42.336-14.496-62.112-25.76l-56.096 23.776-66.432-66.432 23.776-56.096c-11.328-19.808-19.968-40.608-25.76-62.112l-56.448-22.816v-93.984l56.448-22.816c5.856-21.504 14.464-42.336 25.76-62.112l-23.776-56.096 66.432-66.432 56.096 23.776c19.808-11.328 40.608-19.968 62.112-25.76l22.816-56.448h93.984l22.816 56.448c21.504 5.856 42.336 14.464 62.112 25.76l56.096-23.776 66.432 66.432-23.776 56.096c11.328 19.808 19.968 40.608 25.76 62.112l56.448 22.816v93.984l-56.448 22.816c-5.856 21.504-14.496 42.336-25.76 62.112zM312.896 106.656c-78.56 0-142.208 63.648-142.208 142.208s63.648 142.208 142.208 142.208 142.208-63.648 142.208-142.208-63.648-142.208-142.208-142.208z" />
<glyph unicode="&#xe918;" glyph-name="card_manage" d="M543.584 380.8l23.776 56.096-66.432 66.432-56.096-23.776c-19.808 11.264-40.608 19.904-62.112 25.76l-22.816 56.448h-93.984l-22.816-56.448c-21.504-5.856-42.336-14.464-62.112-25.76l-56.096 23.776-66.432-66.432 23.776-56.096c-11.328-19.808-19.968-40.608-25.76-62.112l-56.448-22.816v-93.984l56.448-22.816c5.792-21.504 14.464-42.336 25.76-62.112l-23.776-56.096 66.432-66.432 56.096 23.776c19.808-11.328 40.608-19.968 62.112-25.76l22.816-56.448h93.984l22.816 56.448c21.504 5.856 42.336 14.464 62.112 25.76l56.096-23.776 66.432 66.432-23.776 56.096c11.328 19.808 19.968 40.608 25.76 62.112l56.448 22.816v93.984l-56.448 22.816c-5.856 21.504-14.496 42.336-25.76 62.112zM312.896 55.936c-106.56 0-192.96 86.4-192.96 192.96s86.4 192.96 192.96 192.96 192.96-86.4 192.96-192.96-86.4-192.96-192.96-192.96zM938.656 960h-682.656c-46.944 0-85.344-38.4-85.344-85.344v-284.448c21.792 9.088 44.608 16.224 68.256 20.992v109.856h716.8v-358.4c0-9.28-7.808-17.056-17.056-17.056h-269.184c5.984-22.016 10.016-44.832 11.776-68.256h257.408c46.944 0 85.344 38.4 85.344 85.344v512c0 46.944-38.4 85.344-85.344 85.344zM955.744 789.344h-716.8v85.344c0 9.28 7.808 17.056 17.056 17.056h682.656c9.28 0 17.056-7.808 17.056-17.056v-85.344zM682.656 618.656h170.656v-68.256h-170.656v68.256z" />
<glyph unicode="&#xe919;" glyph-name="card_report_active" d="M170.656 620.384c44.256 17.024 92.032 26.752 142.208 26.752 209.984 0 382.080-163.488 396.8-369.792h257.408c31.296 0 56.896 25.6 56.896 56.896v426.656h-853.344v-140.512zM739.552 675.552h170.656v-85.344h-170.656v85.344zM312.896 561.792c-172.832 0-312.896-140.064-312.896-312.896s140.064-312.896 312.896-312.896 312.896 140.064 312.896 312.896-140.064 312.896-312.896 312.896zM261.696 476.448h102.4v-227.552h-102.4v227.552zM312.896 61.152c-31.392 0-56.896 25.44-56.896 56.896 0 31.392 25.472 56.896 56.896 56.896s56.896-25.472 56.896-56.896c0-31.456-25.472-56.896-56.896-56.896zM967.104 960h-739.552c-31.296 0-56.896-25.6-56.896-56.896v-56.896h853.344v56.896c0 31.296-25.6 56.896-56.896 56.896z" />
<glyph unicode="&#xe91a;" glyph-name="card_report" d="M938.656 960h-682.656c-46.944 0-85.344-38.4-85.344-85.344v-225.44c21.792 10.080 44.608 18.144 68.256 24.224v47.616h716.8v-358.4c0-9.28-7.808-17.056-17.056-17.056h-193.888c3.744-22.24 6.144-44.928 6.144-68.256h187.744c46.944 0 85.344 38.4 85.344 85.344v512c0 46.944-38.4 85.344-85.344 85.344zM955.744 789.344h-716.8v85.344c0 9.28 7.808 17.056 17.056 17.056h682.656c9.28 0 17.056-7.808 17.056-17.056v-85.344zM853.344 618.656h-170.656v-68.256h170.656v68.256zM341.344 618.656c-188.544 0-341.344-152.8-341.344-341.344s152.8-341.344 341.344-341.344 341.344 152.8 341.344 341.344-152.8 341.344-341.344 341.344zM341.344 4.256c-150.592 0-273.056 122.496-273.056 273.056s122.496 273.056 273.056 273.056 273.056-122.496 273.056-273.056-122.496-273.056-273.056-273.056zM375.456 448h-68.256v-227.552h68.256v227.552zM341.344 186.304c-22.016 0-39.808-17.792-39.808-39.808s17.792-39.808 39.808-39.808 39.808 17.792 39.808 39.808-17.856 39.808-39.808 39.808z" />
<glyph unicode="&#xe91b;" glyph-name="card" d="M938.656 618.656h-853.344c-46.944 0-85.344-38.4-85.344-85.344v-512c0-46.944 38.4-85.344 85.344-85.344h853.344c46.944 0 85.344 38.4 85.344 85.344v512c0 46.944-38.4 85.344-85.344 85.344zM955.744 21.344c0-9.28-7.808-17.056-17.056-17.056h-853.344c-9.28 0-17.056 7.808-17.056 17.056v358.4h887.456v-358.4zM955.744 448h-887.456v85.344c0 9.28 7.808 17.056 17.056 17.056h853.344c9.28 0 17.056-7.808 17.056-17.056v-85.344zM853.344 277.344h-170.656v-68.256h170.656v68.256zM742.4 890.528c1.984 0.8 4.096 1.184 6.208 1.184 5.856 0 13.088-3.296 16.032-10.624l78.464-194.176h73.6l-88.8 219.712c-13.376 33.152-45.504 53.376-79.296 53.376-10.592 0-21.344-1.984-31.744-6.208l-660.64-266.88h182.272l503.936 203.616z" />
<glyph unicode="&#xe91c;" glyph-name="chat_ai_active" d="M0 960v-1024l227.552 227.552h796.448v796.448h-1024zM284.448 675.552c0 31.392 25.472 56.896 56.896 56.896s56.896-25.472 56.896-56.896-25.472-56.896-56.896-56.896-56.896 25.472-56.896 56.896zM682.656 402.656c-48.48-33.952-107.136-54.208-170.656-54.208s-122.208 20.256-170.656 54.208v117.76c38.912-52.288 100.64-86.656 170.656-86.656s131.744 34.368 170.656 86.656v-117.76zM682.656 618.656c-31.392 0-56.896 25.472-56.896 56.896s25.472 56.896 56.896 56.896 56.896-25.472 56.896-56.896-25.472-56.896-56.896-56.896z" />
<glyph unicode="&#xe91d;" glyph-name="chat_ai" d="M341.344 618.656c31.392 0 56.896 25.472 56.896 56.896s-25.472 56.896-56.896 56.896-56.896-25.472-56.896-56.896c0-31.392 25.472-56.896 56.896-56.896zM682.656 618.656c31.392 0 56.896 25.472 56.896 56.896s-25.472 56.896-56.896 56.896-56.896-25.472-56.896-56.896c0-31.392 25.472-56.896 56.896-56.896zM0 960v-1024l227.552 227.552h796.448v796.448h-1024zM955.744 231.808h-756.448l-20.032-19.968-110.976-111.040v790.912h887.456v-659.904zM341.344 421.024c47.68-36.128 106.368-58.368 170.656-58.368s123.008 22.24 170.656 58.368v77.152c-41.76-47.776-102.4-78.624-170.656-78.624s-128.896 30.848-170.656 78.624v-77.152z" />
<glyph unicode="&#xe91e;" glyph-name="cheque_deposit_active" d="M170.656 823.456v-887.456h682.656v887.456h-682.656zM398.208 106.656h-85.344v284.448h85.344v-284.448zM682.656 106.656h-170.656v512h170.656v-512zM903.008 960h-781.984c-66.688 0-120.992-53.536-120.992-119.456 0-59.552 44.544-108.672 102.4-117.6v70.016c-19.84 7.392-34.144 25.76-34.144 47.552 0 28.224 23.68 51.2 52.736 51.2h781.952c29.056 0 52.736-22.976 52.736-51.2 0-21.792-14.272-40.224-34.144-47.552v-70.016c57.92 8.928 102.464 58.016 102.464 117.6 0 65.92-54.336 119.456-120.992 119.456z" />
<glyph unicode="&#xe91f;" glyph-name="cheque_deposit" d="M785.056 4.224h-546.144v819.264h-68.256v-887.456h682.656v887.456h-68.256v-819.264zM500.608 618.656v-512h182.048v512h-182.048zM614.4 174.944h-45.504v375.456h45.504v-375.456zM341.344 391.104v-284.448h68.256v284.448h-68.256zM903.008 960h-781.984c-66.688 0-120.992-53.536-120.992-119.456 0-59.552 44.544-108.672 102.4-117.6v70.016c-19.84 7.392-34.144 25.76-34.144 47.552 0 28.224 23.68 51.2 52.736 51.2h781.952c29.056 0 52.736-22.976 52.736-51.2 0-21.792-14.272-40.16-34.144-47.552v-70.016c57.92 8.928 102.464 58.016 102.464 117.6 0 65.92-54.336 119.456-120.992 119.456z" />
<glyph unicode="&#xe920;" glyph-name="chevron_double_down_thick" d="M56.896 544.704v-142.208l455.104-455.104 455.104 455.104v142.208l-455.104-455.104zM512 487.808l-455.104 455.104v-142.208l455.104-455.104 455.104 455.104v142.208z" />
<glyph unicode="&#xe921;" glyph-name="chevron_double_down" d="M56.896 521.952v-96.704l455.104-455.104 455.104 455.104v96.704l-455.104-455.104zM512 465.056l-455.104 455.104v-96.704l455.104-455.104 455.104 455.104v96.704z" />
<glyph unicode="&#xe922;" glyph-name="chevron_double_left_thick" d="M608.704 903.104h-142.208l-455.104-455.104 455.104-455.104h142.208l-455.104 455.104zM551.808 448l455.104 455.104h-142.208l-455.104-455.104 455.104-455.104h142.208z" />
<glyph unicode="&#xe923;" glyph-name="chevron_double_left" d="M585.952 903.104h-96.704l-455.104-455.104 455.104-455.104h96.704l-455.104 455.104zM529.056 448l455.104 455.104h-96.704l-455.104-455.104 455.104-455.104h96.704z" />
<glyph unicode="&#xe924;" glyph-name="chevron_double_right_thick" d="M415.296-7.104h142.208l455.104 455.104-455.104 455.104h-142.208l455.104-455.104zM472.192 448l-455.104-455.104h142.208l455.104 455.104-455.104 455.104h-142.208z" />
<glyph unicode="&#xe925;" glyph-name="chevron_double_right" d="M438.048 903.104h96.704l455.104-455.104-455.104-455.104h-96.704l455.104 455.104zM494.944 448l-455.104 455.104h96.704l455.104-455.104-455.104-455.104h-96.704z" />
<glyph unicode="&#xe926;" glyph-name="chevron_double_up_thick" d="M967.104 351.296v142.208l-455.104 455.104-455.104-455.104v-142.208l455.104 455.104zM512 408.192l455.104-455.104v142.208l-455.104 455.104-455.104-455.104v-142.208z" />
<glyph unicode="&#xe927;" glyph-name="chevron_double_up" d="M967.104 374.048v96.704l-455.104 455.104-455.104-455.104v-96.704l455.104 455.104zM512 430.944l455.104-455.104v96.704l-455.104 455.104-455.104-455.104v-96.704z" />
<glyph unicode="&#xe928;" glyph-name="chevron_down_thick" d="M1024 780.8l-512-512-512 512v-160l512-512 512 512v160z" />
<glyph unicode="&#xe929;" glyph-name="chevron_down" d="M967.104 721.28l-455.104-455.008-455.104 455.008v-96.48l455.104-455.104 455.104 455.104z" />
<glyph unicode="&#xe92a;" glyph-name="chevron_left_thick" d="M844.8-64l-512 512 512 512h-160l-512-512 512-512h160z" />
<glyph unicode="&#xe92b;" glyph-name="chevron_left" d="M785.28-7.104l-455.008 455.104 455.008 455.104h-96.48l-455.104-455.104 455.104-455.104z" />
<glyph unicode="&#xe92c;" glyph-name="chevron_right_thick" d="M179.2-64l512 512-512 512h160l512-512-512-512h-160z" />
<glyph unicode="&#xe92d;" glyph-name="chevron_right" d="M238.72-7.104l455.008 455.104-455.008 455.104h96.48l455.104-455.104-455.104-455.104z" />
<glyph unicode="&#xe92e;" glyph-name="chevron_up_thick" d="M0 115.2l512 512 512-512v160l-512 512-512-512v-160z" />
<glyph unicode="&#xe92f;" glyph-name="chevron_up" d="M56.896 174.72l455.104 455.008 455.104-455.008v96.48l-455.104 455.104-455.104-455.104z" />
<glyph unicode="&#xe930;" glyph-name="clear_active" d="M512 960c-282.784 0-512-229.216-512-512s229.216-512 512-512 512 229.216 512 512-229.216 512-512 512zM775.744 256.672l-72.352-72.416-191.36 191.328-191.36-191.36-72.352 72.416 191.328 191.36-191.328 191.328 72.352 72.416 191.36-191.328 191.36 191.36 72.352-72.416-191.328-191.36 191.328-191.328z" />
<glyph unicode="&#xe931;" glyph-name="clear" d="M715.424 699.68l-203.424-203.424-203.424 203.424-48.256-48.256 203.424-203.424-203.424-203.424 48.288-48.256 203.392 203.424 203.424-203.424 48.288 48.256-203.488 203.424 203.424 203.424-48.256 48.256zM512 960c-282.784 0-512-229.248-512-512s229.216-512 512-512 512 229.248 512 512-229.216 512-512 512zM512 4.256c-244.672 0-443.744 199.040-443.744 443.744s199.040 443.744 443.744 443.744 443.744-199.040 443.744-443.744-199.040-443.744-443.744-443.744z" />
<glyph unicode="&#xe932;" glyph-name="client_management_active" d="M0 732.448v-796.448h682.656v512h-284.448v284.448zM910.208 960h-625.792v-142.208h568.896v-85.344h-266.176l180.864-180.864v-444.928h142.208c62.816 0 113.792 50.976 113.792 113.792v625.792c0 62.816-50.976 113.792-113.792 113.792zM483.552 533.344h182.048l-182.048 182.048z" />
<glyph unicode="&#xe933;" glyph-name="client_management" d="M910.208 960h-625.792v-159.296h68.256v91.008h557.504c25.088 0 45.504-20.416 45.504-45.504v-625.792c0-25.088-20.416-45.504-45.504-45.504h-159.296v-68.256h159.296c62.848 0 113.792 50.912 113.792 113.792v625.792c0 62.848-50.912 113.792-113.792 113.792zM466.496 732.448h-466.496v-796.448h682.656v580.256l-216.192 216.192zM614.4 4.256h-546.144v659.904h329.952v-216.192h216.192v-443.744zM586.112 516.256h-119.648v119.648l119.648-119.648zM853.344 789.344h-347.2l68.256-68.256h278.912v68.256z" />
<glyph unicode="&#xe934;" glyph-name="close" d="M934.336 822.112l-48.256 48.256-374.112-374.112-374.112 374.112-48.256-48.256 374.112-374.112-374.112-374.112 48.256-48.256 374.112 374.112 374.112-374.112 48.256 48.256-374.112 374.112z" />
<glyph unicode="&#xe935;" glyph-name="collapse" d="M1024 630.048h-281.728l277.376 277.376-48.256 48.256-277.376-277.376v281.728l-68.256-68.256v-329.952h329.952zM329.952 678.272l-277.376 277.376-48.256-48.256 277.376-277.376h-281.728l68.256-68.256h329.952v329.952l-68.256 68.256zM694.048 217.728l277.376-277.376 48.256 48.256-277.376 277.376h281.728l-68.256 68.256h-329.952v-329.952l68.256-68.256zM0 265.952h281.728l-277.376-277.376 48.256-48.256 277.376 277.376v-281.728l68.256 68.256v329.952h-329.952z" />
<glyph unicode="&#xe936;" glyph-name="compose_active" d="M996 889.856l-42.144 42.144c-37.312 37.312-97.792 37.312-135.104 0l-460.448-460.512-130.72-307.936 307.936 130.72 460.512 460.512c37.312 37.312 37.312 97.792 0 135.040zM584.128 222.208l-517.632-219.776 219.776 517.632 382.976 383.040h-669.248v-967.104h910.208v612.352l-326.080-326.144z" />
<glyph unicode="&#xe937;" glyph-name="compose" d="M841.952 4.256h-773.696v830.592h556.832l68.256 68.256h-693.376v-967.104h910.208v636.48l-68.256-68.256v-499.936zM996 889.92l-42.112 42.112c-18.656 18.656-43.136 28-67.584 28s-48.928-9.344-67.584-28l-460.448-460.512-130.72-307.936 307.936 130.72 460.512 460.512c37.312 37.312 37.312 97.792 0 135.104zM947.712 803.040l-451.136-451.136-140.16-59.52 59.52 140.16 451.136 451.136c6.944 6.944 15.072 7.968 19.296 7.968s12.352-1.024 19.296-7.968l42.112-42.112c6.944-6.944 7.968-15.072 7.968-19.296s-0.96-12.288-7.968-19.296z" />
<glyph unicode="&#xe938;" glyph-name="contact_address_book_active" d="M853.344 960h-796.448v-227.552h-56.896v-68.256h56.896v-182.048h-56.896v-68.256h56.896v-182.048h-56.896v-68.256h56.896v-227.552h796.448c62.816 0 113.792 50.976 113.792 113.792v796.448c0 62.816-50.976 113.792-113.792 113.792zM512.224 687.744c62.464 0 88.224-50.56 88.224-104.736 0-52.096-26.336-110.208-88.224-110.208-62.912 0-88.736 56.608-88.736 110.208 0 54.624 26.336 104.736 88.736 104.736zM284.448 220.448l45.728 113.152c4.992 12.352 12.064 23.84 21.376 33.44 22.24 22.88 50.016 40.16 82.88 50.752l77.824-77.824 77.696 77.696c32.64-10.592 60.352-27.808 82.496-50.624 9.28-9.568 16.384-21.056 21.376-33.44l45.696-113.152h-455.104z" />
<glyph unicode="&#xe939;" glyph-name="contact_address_book" d="M853.344 960h-796.448v-227.552h-56.896v-68.256h56.896v-182.048h-56.896v-68.256h56.896v-182.048h-56.896v-68.256h56.896v-227.552h796.448c62.816 0 113.792 50.912 113.792 113.792v796.448c0 62.848-50.976 113.792-113.792 113.792zM898.848 49.792c0-25.088-20.416-45.504-45.504-45.504h-728.192v159.296h45.504v68.256h-45.504v182.048h45.504v68.256h-45.504v182.048h45.504v68.256h-45.504v159.296h728.192c25.088 0 45.504-20.416 45.504-45.504v-796.448zM672.416 366.976c-22.144 22.816-49.792 40.064-82.496 50.624l-77.696-77.696-77.824 77.888c-32.832-10.592-60.64-27.872-82.88-50.752-9.28-9.568-16.384-21.056-21.376-33.44l-45.696-113.152h455.104l-45.728 113.152c-4.992 12.352-12.064 23.84-21.376 33.408zM512.224 461.44c61.952 0 88.224 58.080 88.224 110.208 0 54.112-25.824 104.736-88.224 104.736s-88.736-50.112-88.736-104.736c0-53.6 25.824-110.208 88.736-110.208z" />
<glyph unicode="&#xe93a;" glyph-name="contact_chat_active" d="M0 960v-1024l227.552 227.552h796.448v796.448h-1024zM796.448 391.104h-568.896v85.344h568.896v-85.344zM796.448 647.104h-568.896v85.344h568.896v-85.344z" />
<glyph unicode="&#xe93b;" glyph-name="contact_chat" d="M0 960v-1024l227.552 227.552h796.448v796.448h-1024zM955.744 231.808h-756.448l-131.008-131.008v790.912h887.456v-659.904zM796.448 715.392h-568.896v-68.256h568.896v68.256zM796.448 476.448h-568.896v-68.256h568.896v68.256z" />
<glyph unicode="&#xe93c;" glyph-name="contact_complaint" d="M0 960v-1024l227.552 227.552h796.448v796.448h-1024zM955.744 231.808h-756.448l-131.008-131.008v790.912h887.456v-659.904zM512 334.208c31.392 0 56.896 25.472 56.896 56.896s-25.472 56.896-56.896 56.896-56.896-25.472-56.896-56.896c0-31.392 25.472-56.896 56.896-56.896zM546.176 824.448h-68.32v-291.104h68.256v291.104z" />
<glyph unicode="&#xe93d;" glyph-name="contact_live_chat_active" d="M755.84 495.776l-16.896-16.448c-8.704-8.544-18.080-15.808-27.808-22.4v-350.272h312.32l-95.584 236.416c-10.4 25.76-24.864 48.288-42.944 67.008-30.080 30.944-66.336 56.448-107.68 75.712l-21.376 9.952zM711.104 647.104v-83.52c49.024 42.88 73.056 113.44 73.056 182.048 0 130.208-71.296 214.368-181.632 214.368-110.816 0-182.432-84.128-182.432-214.4 0-33.92 5.568-67.648 16.448-98.464h274.592zM625.792 561.792h-625.792v-625.792l170.656 170.656h455.104v455.104zM455.104 291.552h-284.448v85.344h284.448v-85.344z" />
<glyph unicode="&#xe93e;" glyph-name="contact_live_chat" d="M170.656 368.352h284.448v-68.256h-284.448v68.256zM522.016 630.048c-23.616 30.944-33.664 74.912-33.664 115.552 0 34.304 8.256 146.144 114.176 146.144 105.184 0 113.376-111.904 113.376-146.144 0-27.648-6.272-63.84-21.856-94.592v-101.888c60.992 40.448 90.112 120.096 90.112 196.448 0 130.336-71.296 214.464-181.632 214.464-110.816 0-182.432-84.128-182.432-214.4 0-40.224 7.616-80.448 22.976-115.552h78.976zM927.872 343.104c-10.4 25.76-24.864 48.288-42.944 67.008-30.080 30.944-66.336 56.448-107.68 75.712l-21.376 9.952-16.896-16.448c-13.664-13.312-28.896-23.488-44.896-32.192v-75.2c26.688 10.112 51.648 23.84 74.016 42.048 25.664-14.176 48.416-31.392 67.808-51.36 11.936-12.288 21.632-27.424 28.672-44.992l57.696-142.688h-228.192v-68.256h329.376l-95.584 236.416zM0-64l171.168 171.136h454.592v454.656h-625.792v-625.792zM68.256 493.504h489.248v-318.112h-414.592l-74.624-74.592v392.704z" />
<glyph unicode="&#xe93f;" glyph-name="contact_message_active" d="M963.648 846.208h-903.296l451.648-451.648zM512 273.856l-512 512v-736.096h1024v736.096z" />
<glyph unicode="&#xe940;" glyph-name="contact_message" d="M0 846.208v-796.448h1024v796.448h-1024zM907.488 777.952l-395.488-395.424-395.488 395.424h790.976zM68.256 118.048v611.68l443.744-443.744 443.744 443.744v-611.68h-887.456z" />
<glyph unicode="&#xe941;" glyph-name="contact_phone_active" d="M1001.824 202.976l-155.072 155.072c-28.608 28.672-78.624 28.608-107.168 0.064l-84.32-84.32c-2.624-2.624-6.816-3.072-9.504-0.96-41.536 31.968-81.28 67.008-118.208 103.872l-86.752 86.752c-37.152 37.216-72.128 76.96-104 118.272-2.048 2.688-1.6 6.88 1.024 9.504l84.32 84.32c29.536 29.536 29.536 77.6 0 107.168l-155.072 155.008c-28.608 28.672-78.56 28.672-107.232 0l-113.376-113.44c-47.68-47.68-59.904-121.056-30.432-182.624 106.88-223.232 287.104-390.080 292.704-395.040 7.008-7.616 173.856-187.744 397.024-294.688 22.368-10.688 46.304-15.936 69.984-15.936 41.472 0 82.272 16 112.64 46.368l113.376 113.376c14.4 14.336 22.304 33.344 22.304 53.536 0 20.256-7.84 39.296-22.176 53.632z" />
<glyph unicode="&#xe942;" glyph-name="contact_phone" d="M775.744-63.936c-23.712 0-47.616 5.248-69.984 15.936-223.168 106.944-390.016 287.072-397.024 294.688-5.568 4.96-185.728 171.872-292.704 395.040-29.536 61.568-17.248 134.944 30.432 182.624l113.376 113.44c28.672 28.672 78.624 28.672 107.232 0l155.008-155.008c29.536-29.568 29.536-77.664 0-107.168l-84.32-84.32c-2.624-2.624-3.072-6.816-1.024-9.504 31.872-41.312 66.848-81.056 103.936-118.208l86.752-86.752c36.928-36.864 76.672-71.904 118.208-103.872 2.688-2.112 6.88-1.6 9.504 0.96l84.352 84.256c28.544 28.544 78.56 28.608 107.168-0.064l155.072-155.072c14.336-14.336 22.176-33.344 22.176-53.632 0-20.192-7.904-39.2-22.24-53.472l-113.376-113.376c-30.368-30.432-71.168-46.432-112.64-46.432zM213.44 891.456c-2.048 0-4.096-0.672-5.344-1.888l-113.376-113.44c-27.264-27.264-34.144-69.472-17.12-104.96 101.312-211.456 277.568-374.624 279.328-376.192 3.648-3.808 167.296-180.288 378.304-281.376 35.456-17.024 77.664-10.080 104.832 17.12l115.648 118.784c0 1.376-0.384 3.52-2.208 5.344l-155.072 155.072c-3.648 3.648-7.008 3.648-10.592 0l-84.32-84.32c-26.848-26.848-69.568-29.76-99.488-6.72-43.872 33.792-85.856 70.72-124.8 109.728l-86.752 86.656c-39.2 39.136-76.064 81.184-109.728 124.768-22.976 29.856-20.096 72.64 6.784 99.456l84.32 84.32c2.944 2.912 2.944 7.744 0 10.688l-155.072 155.072c-1.248 1.184-3.232 1.888-5.28 1.888z" />
<glyph unicode="&#xe943;" glyph-name="contact_screen_share" d="M295.808 595.904h-68.256v-261.696h432.352v68.256h-364.096zM796.448 732.448h-796.448v-625.792h364.096v-102.4h-193.408v-68.256h455.104v68.256h-193.408v102.4h364.096v625.792zM728.192 174.944h-659.904v489.248h659.904v-489.248zM227.552 960v-159.296h68.256v91.008h659.904v-489.248h-91.008v-68.256h159.296v625.792z" />
<glyph unicode="&#xe944;" glyph-name="contact_video" d="M1024 106.656v853.344h-1024v-853.344h477.856v-102.4h-250.304v-68.256h568.896v68.256h-250.304v102.4h477.856zM68.256 174.944v716.8h887.456v-716.8h-887.456zM512.288 488.288c88.8 0 129.248 81.12 129.248 156.512 0 89.952-51.936 150.4-129.248 150.4-77.664 0-129.824-60.416-129.824-150.4 0-77.888 40.096-156.512 129.824-156.512zM512.288 726.912c55.072 0 60.992-57.472 60.992-82.144 0-3.584-0.672-88.288-60.992-88.288-58.592 0-61.568 73.568-61.568 88.288 0 24.736 5.984 82.144 61.568 82.144zM713.376 397.76c-28.672 29.536-63.936 51.2-104.832 64.512l-19.904 6.496-76.352-76.352-76.416 76.416-19.904-6.368c-41.12-13.248-76.576-34.976-105.312-64.64-13.024-13.376-23.392-29.472-30.784-47.968l-47.744-118.048h73.6l37.44 92.544c4.096 10.176 9.6 18.816 16.448 25.824 16.384 16.896 35.968 30.336 58.24 40.064l94.432-94.368 94.208 94.208c22.176-9.728 41.6-23.104 57.92-39.872 6.784-6.944 12.288-15.648 16.448-25.888l37.376-92.512h73.6l-47.68 117.984c-7.52 18.496-17.792 34.656-30.848 47.968z" />
<glyph unicode="&#xe945;" glyph-name="contact_virtual_active" d="M0 960v-1024l227.552 227.552h796.448v796.448h-1024zM241.792 490.656c-39.264 0-71.104 31.872-71.104 71.104s31.872 71.104 71.104 71.104 71.104-31.872 71.104-71.104-31.872-71.104-71.104-71.104zM512 490.656c-39.264 0-71.104 31.872-71.104 71.104s31.872 71.104 71.104 71.104 71.104-31.872 71.104-71.104-31.872-71.104-71.104-71.104zM782.208 490.656c-39.264 0-71.104 31.872-71.104 71.104s31.872 71.104 71.104 71.104 71.104-31.872 71.104-71.104-31.872-71.104-71.104-71.104z" />
<glyph unicode="&#xe946;" glyph-name="contact_virtual" d="M241.792 490.656c39.264 0 71.104 31.872 71.104 71.104s-31.872 71.104-71.104 71.104-71.104-31.872-71.104-71.104 31.872-71.104 71.104-71.104zM782.208 490.656c39.264 0 71.104 31.872 71.104 71.104s-31.872 71.104-71.104 71.104-71.104-31.872-71.104-71.104 31.872-71.104 71.104-71.104zM512 490.656c39.264 0 71.104 31.872 71.104 71.104s-31.872 71.104-71.104 71.104-71.104-31.872-71.104-71.104 31.872-71.104 71.104-71.104zM0 960v-1024l227.552 227.552h796.448v796.448h-1024zM955.744 231.808h-756.448l-20.032-19.968-110.976-111.040v790.912h887.456v-659.904z" />
<glyph unicode="&#xe947;" d="M1024 448c0-282.784-229.216-512-512-512s-512 229.216-512 512c0 282.784 229.216 512 512 512s512-229.216 512-512z" />
<glyph unicode="&#xe948;" d="M512 499.584c-92.544 0-176.416-38.048-236.768-99.264l48.288-48.288c48 48.864 114.688 79.36 188.48 79.36s140.448-30.496 188.48-79.36l48.288 48.288c-60.352 61.216-144.224 99.264-236.768 99.264z" />
<glyph unicode="&#xe949;" d="M512 343.168c-49.44 0-94.080-20.608-126.112-53.472l48.256-48.256c19.68 20.544 47.232 33.504 77.888 33.504s58.208-12.96 77.888-33.504l48.256 48.256c-32.032 32.896-76.672 53.472-126.112 53.472z" />
<glyph unicode="&#xe94a;" d="M512 656.032c-135.744 0-258.624-55.648-347.36-145.184l48.256-48.256c76.352 77.184 182.208 125.152 299.136 125.152s222.784-47.968 299.136-125.152l48.256 48.256c-88.736 89.6-211.616 145.184-347.36 145.184z" />
<glyph unicode="&#xe94b;" glyph-name="contactless" d="M275.232 400.32l48.288-48.288c48 48.864 114.688 79.36 188.48 79.36s140.448-30.496 188.48-79.36l48.288 48.288c-60.352 61.216-144.224 99.264-236.768 99.264s-176.416-38.048-236.768-99.264zM512 656.032c-135.744 0-258.624-55.648-347.36-145.184l48.256-48.256c76.352 77.184 182.208 125.152 299.136 125.152s222.784-47.968 299.136-125.152l48.256 48.256c-88.736 89.6-211.616 145.184-347.36 145.184zM385.888 289.664l48.256-48.256c19.68 20.544 47.232 33.504 77.888 33.504s58.208-12.96 77.888-33.504l48.256 48.256c-32.032 32.896-76.672 53.472-126.112 53.472s-94.080-20.608-126.112-53.472zM512 960c-282.752 0-512-229.216-512-512s229.248-512 512-512 512 229.216 512 512-229.248 512-512 512zM512 4.256c-244.672 0-443.744 199.040-443.744 443.744s199.040 443.744 443.744 443.744 443.744-199.040 443.744-443.744-199.040-443.744-443.744-443.744z" />
<glyph unicode="&#xe94c;" glyph-name="control_backward" d="M227.552 473.6v429.504h-170.656v-910.208h170.656v429.504l739.552-429.504v910.208z" />
<glyph unicode="&#xe94d;" glyph-name="control_forward" d="M796.448 903.104v-429.504l-739.552 429.504v-910.208l739.552 429.504v-429.504h170.656v910.208z" />
<glyph unicode="&#xe94e;" glyph-name="control_pause" d="M113.792 903.104h227.552v-910.208h-227.552v910.208zM682.656 903.104h227.552v-910.208h-227.552v910.208z" />
<glyph unicode="&#xe94f;" glyph-name="control_play" d="M954.24 448l-783.584 455.104v-910.208z" />
<glyph unicode="&#xe950;" glyph-name="copy" d="M56.896-7.104h568.896v568.896h-568.896v-568.896zM125.152 493.504h432.352v-432.352h-432.352v432.352zM466.496 721.056h-68.256v-91.008h68.256v91.008zM466.496 834.848h45.504v68.256h-113.792v-113.792h68.256v45.504zM853.344 903.104v-68.256h45.504v-45.504h68.256v113.792h-113.792zM694.048 334.208h91.008v68.256h-91.008v-68.256zM898.848 402.496h-45.504v-68.256h113.792v159.296h-68.256v-91.008zM898.848 561.792h68.256v159.296h-68.256v-159.296zM580.256 834.848h204.8v68.256h-204.8v-68.256z" />
<glyph unicode="&#xe951;" glyph-name="dashboard_active" d="M512 960c-282.784 0-512-229.216-512-512s229.216-512 512-512 512 229.216 512 512-229.216 512-512 512zM198.816 418.592h-129.088c-0.64 9.792-1.472 19.52-1.472 29.408 0 19.008 1.6 37.6 3.936 55.936h126.624v-85.344zM260.384 652.576l-84.416 84.352c18.592 21.632 39.2 41.408 61.6 59.040l83.104-83.104-60.288-60.288zM512 305.792c-78.56 0-142.208 63.648-142.208 142.208 0 63.616 41.984 116.8 99.552 135.008v206.336h85.344v-206.336c57.568-18.208 99.552-71.392 99.552-135.008 0-78.56-63.648-142.208-142.208-142.208zM703.264 712.864l83.104 83.104c22.4-17.696 43.008-37.44 61.6-59.040l-84.416-84.352-60.288 60.288zM825.184 418.592v85.344h126.624c2.336-18.304 3.936-36.928 3.936-55.936 0-9.888-0.864-19.616-1.472-29.408h-129.088zM568.896 448c0-31.424-25.472-56.896-56.896-56.896s-56.896 25.472-56.896 56.896c0 31.424 25.472 56.896 56.896 56.896s56.896-25.472 56.896-56.896z" />
<glyph unicode="&#xe952;" glyph-name="dashboard" d="M512 960c-282.752 0-512-229.216-512-512s229.248-512 512-512 512 229.216 512 512-229.248 512-512 512zM512 4.256c-233.184 0-424.448 180.896-442.016 409.6h100.704v68.256h-100.704c7.392 96.704 45.728 184.704 105.408 254.24l71.104-71.104 48.288 48.256-71.104 71.168c77.6 66.56 178.24 107.072 288.32 107.072s210.72-40.512 288.32-107.136l-71.104-71.168 48.288-48.256 71.104 71.104c59.616-69.472 97.952-157.472 105.408-254.176h-100.704v-68.256h100.704c-17.568-228.704-208.832-409.6-442.016-409.6zM546.144 555.968v233.344h-68.256v-233.344c-46.016-14.56-79.648-57.12-79.648-107.968 0-62.848 50.976-113.792 113.792-113.792s113.792 50.912 113.792 113.792c0 50.848-33.632 93.408-79.648 107.968zM512 402.496c-25.088 0-45.504 20.416-45.504 45.504s20.416 45.504 45.504 45.504 45.504-20.416 45.504-45.504-20.416-45.504-45.504-45.504z" />
<glyph unicode="&#xe953;" glyph-name="data_chart_active" d="M455.104 846.208c-251.328 0-455.104-203.776-455.104-455.104 0-110.304 39.264-211.392 104.576-290.176l350.56 350.56v394.752zM164.864 40.608c78.784-65.312 179.936-104.608 290.24-104.608s211.456 39.296 290.24 104.608l-290.24 290.144-290.24-290.144zM805.664 100.928c65.312 78.784 104.576 179.872 104.576 290.176h-394.752l290.176-290.176zM625.792 960v-398.208h398.208c0 219.936-178.304 398.208-398.208 398.208z" />
<glyph unicode="&#xe954;" glyph-name="data_chart" d="M625.792 960v-398.208h398.208c0 219.936-178.304 398.208-398.208 398.208zM694.048 884.608c127.264-26.848 227.712-127.328 254.592-254.592h-254.592v254.592zM512 846.208h-56.896c-251.328 0-455.104-203.776-455.104-455.104s203.776-455.104 455.104-455.104 455.104 203.776 455.104 455.104v56.896h-398.208v398.208zM68.256 391.104c0 209.472 167.424 380.192 375.456 386.272v-360.736l-279.616-279.616c-59.52 68.032-95.872 156.8-95.872 254.080zM455.104 4.256c-91.488 0-175.552 32.096-241.824 85.376l241.824 241.792 241.824-241.792c-66.272-53.312-150.368-85.376-241.824-85.376zM841.376 379.744c-2.72-92.8-38.112-177.312-95.296-242.688l-242.688 242.688h337.984z" />
<glyph unicode="&#xe955;" glyph-name="delete_active" d="M113.792-64h796.448v682.656h-796.448v-682.656zM597.344 448h85.344v-341.344h-85.344v341.344zM341.344 448h85.344v-341.344h-85.344v341.344zM967.104 704v56.896c0 47.168-38.176 85.344-85.344 85.344h-199.104v28.448c0 46.944-38.4 85.344-85.344 85.344h-170.656c-46.944 0-85.344-38.4-85.344-85.344v-28.448h-199.104c-47.168 0-85.344-38.176-85.344-85.344v-56.896h910.208zM409.6 874.656c0 9.28 7.808 17.056 17.056 17.056h170.656c9.28 0 17.056-7.808 17.056-17.056v-28.448h-204.8v28.448z" />
<glyph unicode="&#xe956;" glyph-name="delete" d="M881.792 846.208h-199.104v28.448c0 46.944-38.4 85.344-85.344 85.344h-170.656c-46.944 0-85.344-38.4-85.344-85.344v-28.448h-199.104c-47.104 0-85.344-38.24-85.344-85.344v-142.208h56.896v-682.656h796.448v682.656h56.896v142.208c0 47.104-38.24 85.344-85.344 85.344zM409.6 874.656c0 9.28 7.808 17.056 17.056 17.056h170.656c9.28 0 17.056-7.808 17.056-17.056v-28.448h-204.8v28.448zM841.952 4.256h-659.904v614.4h659.904v-614.4zM898.848 686.944h-773.696v73.952c0 9.376 7.68 17.056 17.056 17.056h739.552c9.44 0 17.056-7.68 17.056-17.056v-73.952zM409.6 504.896h-68.256v-398.208h68.256v398.208zM682.656 504.896h-68.256v-398.208h68.256v398.208z" />
<glyph unicode="&#xe957;" glyph-name="device_all" d="M1024 277.344v682.656h-853.344v-159.296h68.256v91.008h716.8v-546.144h-375.456v-238.944h216.192v68.256h-147.904v102.4h375.456zM398.208 732.448h-284.448c-62.848 0-113.792-50.944-113.792-113.792v0-568.896c0-62.848 50.944-113.792 113.792-113.792v0h284.448c62.848 0 113.792 50.944 113.792 113.792v0 568.896c0 62.848-50.944 113.792-113.792 113.792v0zM443.744 49.792c-1.696-24.416-21.088-43.808-45.344-45.504h-284.608c-24.416 1.696-43.808 21.088-45.504 45.344v85.504h375.456zM443.744 203.392h-375.456v415.296c1.696 24.416 21.088 43.808 45.344 45.504h284.608c24.416-1.696 43.808-21.088 45.504-45.344v-0.16zM290.144 72.544c0-18.848-15.296-34.144-34.144-34.144s-34.144 15.296-34.144 34.144c0 18.848 15.296 34.144 34.144 34.144s34.144-15.296 34.144-34.144z" />
<glyph unicode="&#xe958;" glyph-name="device_desktop" d="M1024 106.656v853.344h-1024v-853.344h477.856v-102.4h-250.304v-68.256h568.896v68.256h-250.304v102.4h477.856zM68.256 891.744h887.456v-716.8h-887.456v716.8z" />
<glyph unicode="&#xe959;" glyph-name="device_mobile" d="M557.504 78.208c0-25.12-20.384-45.504-45.504-45.504s-45.504 20.384-45.504 45.504c0 25.12 20.384 45.504 45.504 45.504s45.504-20.384 45.504-45.504zM739.552 960h-455.104c-62.848 0-113.792-50.944-113.792-113.792v0-796.448c0-62.848 50.944-113.792 113.792-113.792v0h455.104c62.848 0 113.792 50.944 113.792 113.792v0 796.448c0 62.848-50.944 113.792-113.792 113.792v0zM284.448 891.744h455.104c24.416-1.696 43.808-21.088 45.504-45.344v-625.952h-546.144v625.792c1.696 24.416 21.088 43.808 45.344 45.504h0.16zM739.552 4.256h-455.104c-24.416 1.696-43.808 21.088-45.504 45.344v102.56h546.144v-102.4c-1.696-24.416-21.088-43.808-45.344-45.504h-0.16z" />
<glyph unicode="&#xe95a;" glyph-name="device_tablet" d="M826.016 960h-625.792c-62.848 0-113.792-50.944-113.792-113.792v0-796.448c0-62.848 50.944-113.792 113.792-113.792v0h625.792c62.848 0 113.792 50.944 113.792 113.792v0 796.448c0 62.848-50.944 113.792-113.792 113.792v0zM871.552 49.792c-0.32-24.992-20.512-45.184-45.472-45.504h-625.792c-24.992 0.32-45.184 20.512-45.504 45.472v796.48c0.32 24.992 20.512 45.184 45.472 45.504h625.792c24.992-0.32 45.184-20.512 45.504-45.472v-0.032zM143.936 800.704h745.824v-68.256h-745.824v68.256zM555.808 88.448c0-24.512-19.872-44.384-44.384-44.384s-44.384 19.872-44.384 44.384c0 24.512 19.872 44.384 44.384 44.384s44.384-19.872 44.384-44.384zM130.848 234.656h758.912v-68.256h-758.912v68.256z" />
<glyph unicode="&#xe95b;" glyph-name="dial_active" d="M372.608 587.392h278.752v-278.752h-278.752v278.752zM736.704 672.704h287.296v201.952c0 46.944-38.4 85.344-85.344 85.344h-201.952v-287.296zM372.608 960h278.752v-287.296h-278.752v287.296zM0 587.392h287.296v-278.752h-287.296v278.752zM372.608 223.296h278.752v-287.296h-278.752v287.296zM287.296 223.296h-287.296v-201.952c0-46.944 38.4-85.344 85.344-85.344h201.952v287.296zM736.704 223.296v-287.296h201.952c46.944 0 85.344 38.4 85.344 85.344v201.952h-287.296zM736.704 587.392h287.296v-278.752h-287.296v278.752zM287.296 672.704v287.296h-201.952c-46.944 0-85.344-38.4-85.344-85.344v-201.952h287.296z" />
<glyph unicode="&#xe95c;" glyph-name="dial" d="M938.656 960h-853.344c-46.944 0-85.344-38.4-85.344-85.344v-853.344c0-46.944 38.4-85.344 85.344-85.344h853.344c46.944 0 85.344 38.4 85.344 85.344v853.344c0 46.944-38.4 85.344-85.344 85.344zM955.744 874.656v-233.248h-250.304v250.304h233.248c9.28 0 17.056-7.808 17.056-17.056zM386.848 322.848v250.304h250.304v-250.304h-250.304zM637.152 254.592v-250.304h-250.304v250.304h250.304zM318.592 322.848h-250.304v250.304h250.304v-250.304zM386.848 641.408v250.304h250.304v-250.304h-250.304zM705.408 573.152h250.304v-250.304h-250.304v250.304zM85.344 891.744h233.248v-250.304h-250.304v233.248c0 9.28 7.808 17.056 17.056 17.056zM68.256 21.344v233.248h250.304v-250.304h-233.248c-9.28 0-17.056 7.808-17.056 17.056zM938.656 4.256h-233.248v250.304h250.304v-233.248c0-9.28-7.808-17.056-17.056-17.056z" />
<glyph unicode="&#xe95d;" glyph-name="dining_active" d="M250.752 626.528l46.72-49.792c60.48 56.704 65.824 149.792 12.064 207.296-29.12 31.456-25.376 79.296 8.64 111.232l-46.752 49.792c-61.152-57.408-66.432-148.544-11.904-207.488 28.288-30.144 24.352-80-8.768-111.040zM705.888 626.528l46.72-49.792c60.48 56.704 65.824 149.856 12 207.36-29.12 31.456-25.376 79.296 8.64 111.232l-46.72 49.792c-61.216-57.472-66.432-148.544-11.904-207.488 28.288-30.208 24.352-80.032-8.768-111.104zM478.336 626.528l46.72-49.792c60.48 56.704 65.824 149.856 12 207.36-29.056 31.392-25.312 79.232 8.704 111.168l-46.752 49.792c-61.152-57.408-66.432-148.544-11.904-207.488 28.288-30.144 24.352-80-8.768-111.040zM0 504.896v-56.96c0-282.752 229.216-511.936 512-511.936s512 229.216 512 511.936v56.96h-1024z" />
<glyph unicode="&#xe95e;" glyph-name="dining" d="M250.752 626.528l46.72-49.792c60.48 56.704 65.824 149.792 12.064 207.296-29.12 31.456-25.376 79.296 8.64 111.232l-46.752 49.792c-61.152-57.408-66.432-148.544-11.904-207.488 28.288-30.144 24.352-80-8.768-111.040zM705.888 626.528l46.72-49.792c60.48 56.704 65.824 149.856 12 207.36-29.12 31.456-25.376 79.296 8.64 111.232l-46.72 49.792c-61.216-57.472-66.432-148.544-11.904-207.488 28.288-30.208 24.352-80.032-8.768-111.104zM478.336 626.528l46.72-49.792c60.48 56.704 65.824 149.856 12 207.36-29.056 31.392-25.312 79.232 8.704 111.168l-46.752 49.792c-61.152-57.408-66.432-148.544-11.904-207.488 28.288-30.144 24.352-80-8.768-111.040zM0 504.896v-56.96c0-282.752 229.216-511.936 512-511.936s512 229.216 512 511.936v56.96h-1024zM512 4.256c-240.864 0-437.536 192.896-443.552 432.352h887.168c-6.080-239.456-202.752-432.352-443.616-432.352z" />
<glyph unicode="&#xe95f;" glyph-name="direction_down" d="M113.792 342.912l398.208-398.336 398.208 398.336v96.48l-364.096-364.096v884.672h-68.256v-884.672l-364.096 364.096z" />
<glyph unicode="&#xe960;" glyph-name="direction_left" d="M406.912 846.208l-398.336-398.208 398.336-398.208h96.48l-364.096 364.096h884.672v68.256h-884.672l364.096 364.096z" />
<glyph unicode="&#xe961;" glyph-name="direction_right" d="M617.088 846.208l398.336-398.208-398.336-398.208h-96.48l364.096 364.096h-884.672v68.256h884.672l-364.096 364.096z" />
<glyph unicode="&#xe962;" glyph-name="direction_switch" d="M284.448 846.208h-68.256v-709.248l-216.192 216.128v-96.544l250.304-250.304 261.696 261.76v96.48l-227.552-227.552v709.28zM773.696 889.728l-261.696-261.76v-96.48l227.552 227.552v-709.28h68.256v709.248l216.192-216.128v96.544l-250.304 250.304z" />
<glyph unicode="&#xe963;" glyph-name="direction_up" d="M910.208 553.088l-398.208 398.336-398.208-398.336v-96.48l364.096 364.096v-884.672h68.256v884.672l364.096-364.096z" />
<glyph unicode="&#xe964;" glyph-name="document_article" d="M853.344 759.872v96.48l-103.648 103.648h-579.008v-68.224h550.752zM694.048 823.456h-580.256v-887.456h796.448v671.296l-216.192 216.192zM841.952 4.256h-659.904v750.944h443.744v-216.192h216.192v-534.752zM813.696 607.296h-119.648v119.648l119.648-119.648z" />
<glyph unicode="&#xe965;" glyph-name="document_confidential" d="M807.808 960v0h-580.256v-280.704c18.304 4.48 37.216 7.616 56.896 7.616 3.872 0 7.52-0.896 11.392-1.152v205.952h443.744v-216.192h216.192v-557.504h-318.592v-68.256h386.848v694.048l-216.192 216.192zM807.808 743.808v119.648l119.648-119.648h-119.648zM500.608 391.104h-45.504v56.896c0 93.856-76.8 170.656-170.656 170.656s-170.656-76.8-170.656-170.656v-56.896h-45.504c-37.536 0-68.256-30.72-68.256-68.256v-318.592c0-37.536 30.72-68.256 68.256-68.256h432.352c37.536 0 68.256 30.72 68.256 68.256v318.592c0 37.536-30.72 68.256-68.256 68.256zM182.048 448c0 56.448 45.952 102.4 102.4 102.4s102.4-45.952 102.4-102.4v-56.896h-204.8v56.896zM500.608 4.256h-432.352v318.592h432.352v-318.592zM318.592 220.448h-68.256v-113.792h68.256v113.792z" />
<glyph unicode="&#xe966;" glyph-name="document_e_statement" d="M750.944 960v0h-694.048v-1024h910.208v807.808l-216.192 216.192zM750.944 863.456l119.648-119.648h-119.648v119.648zM898.848 4.256h-773.696v887.456h557.504v-216.192h216.192v-671.296zM588.224 448.352l-190.016 142.464v-237.568l52.8 26.4 79.712-159.168 84.416 42.272-79.712 159.232 52.8 26.4z" />
<glyph unicode="&#xe967;" glyph-name="document_pdf" d="M221.92 426.496h-18.048v-45.408h15.2c31.104 0 35.328 11.904 35.328 23.488 0 15.584-9.44 21.888-32.48 21.888zM750.944 960v0h-580.256v-329.952h68.256v261.696h443.744v-216.192h216.192v-671.296h-659.904v91.008h-68.256v-159.296h796.448v807.808l-216.192 216.192zM750.944 743.808v119.648l119.648-119.648h-119.648zM739.552 164.128v397.088c0 0.352-0.224 0.576-0.576 0.576h-681.536c-0.352 0-0.576-0.224-0.576-0.576v-397.088c0-0.288 0.224-0.576 0.576-0.576h681.536c0.352 0 0.576 0.288 0.576 0.576zM270.784 347.296l-0.064-0.064c-9.728-3.936-23.040-6.016-37.44-6.016h-29.408v-72.416h-51.872v197.632h74.816c18.304 0 37.536-0.896 53.696-11.776 17.184-11.648 26.24-29.632 26.24-51.872 0.064-25.248-13.44-46.016-35.968-55.456zM387.584 268.736h-64.16v197.696h70.432c72.544 0 109.344-32.928 109.344-97.952-0.064-88.416-61.792-99.712-115.584-99.712zM658.784 426.208h-83.232v-38.4h78.336v-39.936h-78.336v-79.2h-51.136v197.76h134.368v-40.224zM390.208 426.496h-14.976v-117.824h13.376c43.168 0 61.6 17.76 61.6 59.328s-17.344 58.496-60.032 58.496z" />
<glyph unicode="&#xe968;" glyph-name="document" d="M750.944 960v0h-694.048v-1024h910.208v807.808l-216.192 216.192zM870.56 743.808h-119.648v119.648l119.648-119.648zM898.848 4.256h-773.696v887.456h557.504v-216.192h216.192v-671.296z" />
<glyph unicode="&#xe969;" glyph-name="dollar_bill_active" d="M0 817.792v-739.552h1024v739.552h-1024zM506.528 494.464l36.512-11.616c40.096-12.416 123.040-38.4 123.040-129.472 0-65.472-43.52-112.704-111.456-127.488v-62.336h-85.344v60.576c-68.608 11.936-110.528 55.968-111.456 121.344l85.344 1.184c0.16-11.136 0.576-40.832 65.184-40.832 21.792 0 72.416 4.608 72.416 47.488 0 20.928-9.568 31.392-63.36 48.128l-0.352 0.128-36.192 11.552c-39.776 12.352-123.040 38.24-123.040 129.472 0 65.472 43.52 112.704 111.456 127.488v62.336h85.344v-60.576c68.608-11.936 110.528-55.968 111.456-121.344l-85.344-1.184c-0.16 11.136-0.576 40.832-65.184 40.832-21.792 0-72.416-4.608-72.416-47.488 0.064-20.992 9.6-31.456 63.36-48.192z" />
<glyph unicode="&#xe96a;" glyph-name="dollar_bill" d="M0 817.792v-739.552h1024v739.552h-1024zM71.040 746.72h406.816v-83.456c-67.872-12.224-111.488-57.472-111.488-120.672 0-84.992 76.352-108.672 117.12-121.344l36.224-11.552 0.224-0.128c54.432-16.896 69.344-29.024 69.344-56.192 0-52-61.952-56.032-80.96-56.032-72.992 0-73.504 37.024-73.664 49.28l-68.32-1.024c0.896-63.040 42.848-105.088 111.456-114.464v-81.856h-406.752v597.44zM952.96 149.28h-406.816v83.456c67.872 12.224 111.456 57.472 111.456 120.672 0 84.992-76.352 108.672-117.376 121.472v0l-36.224 11.552c-54.432 16.896-69.344 29.024-69.344 56.192 0 52 61.952 56.032 80.96 56.032 72.992 0 73.504-37.024 73.664-49.28l68.256 1.024c-0.8 63.040-42.72 105.024-111.392 114.464v81.856h406.816v-597.44z" />
<glyph unicode="&#xe96b;" glyph-name="download" d="M898.848 277.344v-216.192h-773.696v216.192h-68.256v-284.448h910.208v284.448h-68.256zM796.448 456.64v96.544l-250.304-250.304v600.224h-68.256v-600.224l-250.304 250.304v-96.544l284.448-284.512 284.448 284.512z" />
<glyph unicode="&#xe96c;" glyph-name="edit_active" d="M940.544 648.704l47.456 47.456c47.968 47.968 47.968 125.728 0 173.728l-54.144 54.144c-47.968 47.968-125.728 47.968-173.728 0l-47.488-47.456 227.968-227.904zM652.352 816.256l-484.288-484.352-168.064-395.904 395.904 168.064 484.352 484.288z" />
<glyph unicode="&#xe96d;" glyph-name="edit" d="M988.032 869.888l-54.144 54.144c-24 23.936-55.456 35.968-86.88 35.968s-62.848-12-86.88-35.968l-592.096-592.16-168.064-395.904 395.904 168.064 592.16 592.096c47.968 47.968 47.968 125.792 0 173.728zM357.024 161.728l-228.192-96.832 96.832 228.192 480.928 480.928 131.296-131.296-480.896-480.992zM939.744 744.448l-53.536-53.536-131.296 131.296 53.536 53.536c10.304 10.304 24 16 38.56 16s28.288-5.696 38.56-16l54.144-54.144c21.28-21.28 21.28-55.872 0-77.152z" />
<glyph unicode="&#xe96e;" glyph-name="education_active" d="M512 874.656l-512-227.552 512-227.552 443.744 197.248v-424.8h68.256v455.104l-512 227.552zM512 326.144l-341.344 151.712v-285.856c0-94.272 152.8-170.656 341.344-170.656s341.344 76.416 341.344 170.656v285.856l-341.344-151.712z" />
<glyph unicode="&#xe96f;" glyph-name="education_book_active" d="M469.344 906.176c-30.272 22.816-67.136 37.312-107.904 37.312h-361.408v-910.208h361.408c40.8 0 77.664-14.56 107.904-37.376v910.272zM662.592 943.488c-40.8 0-77.664-14.56-107.904-37.376v-910.208c30.272 22.816 67.136 37.376 107.904 37.376h361.408v910.208h-361.408z" />
<glyph unicode="&#xe970;" glyph-name="education_book" d="M662.592 943.488c-62.848 0-118.208-32.096-150.592-80.768-32.384 48.704-87.712 80.768-150.592 80.768h-361.408v-910.208h361.408c62.848 0 118.208-32.128 150.592-80.832 32.384 48.704 87.712 80.832 150.592 80.832h361.408v910.208h-361.408zM68.256 101.536v773.696h293.152c37.728 0 72.768-18.816 93.76-50.336l22.688-34.144v-718.048c-35.328 18.72-75.136 28.896-116.448 28.896h-293.152zM955.744 101.536h-293.152c-41.312 0-81.12-10.176-116.448-28.896v718.112l22.688 34.176c20.928 31.52 55.968 50.336 93.76 50.336h293.152v-773.76z" />
<glyph unicode="&#xe971;" glyph-name="education" d="M512 874.656l-512-227.552 512-227.552 443.744 197.248v-424.8h68.256v455.104l-512 227.552zM512 494.24l-343.904 152.864 343.904 152.864 343.904-152.864-343.904-152.864zM785.056 192c0-36.128-103.648-102.4-273.056-102.4s-273.056 66.272-273.056 102.4v274.208l-68.256 30.368v-304.576c0-94.272 152.8-170.656 341.344-170.656s341.344 76.416 341.344 170.656v304.576l-68.256-30.368v-274.208z" />
<glyph unicode="&#xe972;" glyph-name="expand" d="M406.144 293.888l-48.256 48.256-232.736-232.736v236.192l-68.256-68.256v-284.448h284.448l68.256 68.256h-236.192l232.736 232.736zM898.848 109.408l-232.736 232.672-48.256-48.256 232.736-232.672h-236.192l68.256-68.256h284.448v284.448l-68.256 68.256v-236.192zM682.656 903.104l-68.256-68.256h236.192l-232.672-232.672 48.256-48.256 232.672 232.672v-236.192l68.256 68.256v284.448h-284.448zM56.896 903.104v-284.448l68.256-68.256v236.192l232.736-232.672 48.256 48.256-232.736 232.672h236.192l-68.256 68.256h-284.448z" />
<glyph unicode="&#xe973;" glyph-name="export" d="M898.848 61.152h-773.696v773.696h329.952v68.256h-398.208v-910.208h910.208v341.344h-68.256v-273.056zM420.992 220.448h68.256v256c0 75.264 61.28 136.544 136.544 136.544h267.488l-221.856-221.856h96.48l256.064 256-256.064 256h-96.544l221.856-221.856h-267.424c-112.928 0-204.8-91.808-204.8-204.8v-256z" />
<glyph unicode="&#xe974;" glyph-name="fast_track_active" d="M512 960c-282.784 0-512-229.216-512-512s229.216-512 512-512 512 229.216 512 512-229.216 512-512 512zM243.712 220.448l227.552 227.552-227.552 227.552h120.672l227.552-227.552-227.552-227.552h-120.672zM615.776 220.448h-120.672l227.552 227.552-227.552 227.552h120.672l227.552-227.552-227.552-227.552z" />
<glyph unicode="&#xe975;" glyph-name="fast_track" d="M512 960c-282.784 0-512-229.248-512-512s229.216-512 512-512 512 229.248 512 512-229.216 512-512 512zM512 4.256c-244.672 0-443.744 199.040-443.744 443.744s199.040 443.744 443.744 443.744 443.744-199.040 443.744-443.744c0-244.672-199.040-443.744-443.744-443.744zM352.32 675.552h-96.544l227.552-227.552-227.552-227.552h96.544l227.552 227.552-227.552 227.552zM603.712 675.552h-96.48l227.552-227.552-227.552-227.552h96.544l227.616 227.552-227.68 227.552z" />
<glyph unicode="&#xe976;" glyph-name="favourite_pin_active" d="M999.040 709.184l-225.856 225.856c-33.344 33.344-87.392 33.344-120.672 0l-259.456-259.456h-393.056l329.568-329.568-312.896-312.896c-22.24-22.24-22.24-58.208 0-80.448 11.104-11.104 25.664-16.672 40.224-16.672s29.12 5.568 40.224 16.672l312.896 312.896 329.568-329.568v393.056l259.456 259.456c33.28 33.28 33.28 87.328 0 120.672z" />
<glyph unicode="&#xe977;" glyph-name="favourite_pin" d="M999.040 709.184l-225.856 225.856c-16.672 16.672-38.528 24.96-60.352 24.96s-43.68-8.32-60.352-24.96l-259.424-259.456h-393.056l345.664-345.664-333.664-333.6c-13.312-13.248-13.312-34.944 0-48.256 6.656-6.656 15.424-10.016 24.128-10.016s17.472 3.36 24.128 10.016l333.6 333.6 345.728-345.664v393.056l259.456 259.456c33.28 33.28 33.28 87.328 0 120.672zM950.72 636.768l-279.424-279.424v-256.512l-506.496 506.496h256.512l279.424 279.424c4.16 4.16 8.832 4.992 12.064 4.992s7.968-0.864 12.064-4.992l225.856-225.856c4.16-4.16 4.992-8.832 4.992-12.064s-0.864-7.904-4.992-12.064z" />
<glyph unicode="&#xe978;" glyph-name="favourite_star_active" d="M1024 561.792h-388.384l-123.616 368.192-123.616-368.192h-388.384l312.032-235.136-116.448-370.528 316.416 225.216 316.416-225.216-116.448 370.528z" />
<glyph unicode="&#xe979;" glyph-name="favourite_star" d="M512 715.424l74.528-221.92h233.472l-187.552-141.312 14.464-45.952 55.456-176.512-190.336 135.456-190.336-135.456 69.92 222.496-187.52 141.312h233.408l15.648 46.528 58.88 175.392zM512 929.952l-123.616-368.192h-388.384l312.032-235.136-116.448-370.528 316.416 225.216 316.416-225.216-116.448 370.528 312.032 235.136h-388.384l-123.616 368.192z" />
<glyph unicode="&#xe97a;" glyph-name="file_attachment" d="M694.048 960v0h-580.256v-495.104l68.256 68.256v358.56h443.744v-216.192h216.192v-671.296h-358.912l-68.256-68.256h495.456v807.808l-216.192 216.192zM694.048 743.808v119.648l119.648-119.648h-119.648zM684.16 531.392c-63.136 63.040-166.016 63.040-229.248 0v-0.064l-297.088-297.12c-38.784-38.784-38.784-101.952 0-140.736 19.392-19.456 44.928-29.12 70.368-29.12 25.472 0 50.976 9.664 70.432 29.12l251.456 251.456-48.288 48.256-251.456-251.456c-12.16-12.128-31.968-12.16-44.256 0-12.16 12.224-12.16 32.032 0 44.256l297.088 297.088c36.576 36.704 96.128 36.64 132.736 0.064 36.576-36.64 36.576-96.192 0-132.832l-300.192-300.16c-61.088-60.992-160.48-60.992-221.568 0-61.088 61.088-61.088 160.544 0 221.632l257.696 257.6-48.288 48.192-257.6-257.536c-87.712-87.68-87.712-230.4 0-318.112 43.872-43.872 101.44-65.76 159.072-65.76s115.2 21.888 159.072 65.76l300.192 300.16c63.2 63.264 63.2 166.112-0.064 229.376z" />
<glyph unicode="&#xe97b;" glyph-name="filter_active" d="M297.536 248.896c-58.304 0-108.256-35.168-130.208-85.344h-167.296v-113.792h167.296c21.952-50.176 71.904-85.344 130.208-85.344s108.256 35.168 130.208 85.344h596.256v113.792h-596.256c-21.952 50.176-71.904 85.344-130.208 85.344zM427.744 846.208c-21.952 50.176-71.904 85.344-130.208 85.344s-108.256-35.168-130.208-85.344h-167.296v-113.792h167.296c21.952-50.176 71.904-85.344 130.208-85.344s108.256 35.168 130.208 85.344h596.256v113.792h-596.256zM726.464 590.208c-58.304 0-108.256-35.168-130.208-85.344h-596.256v-113.792h596.256c21.952-50.176 71.904-85.344 130.208-85.344s108.256 35.168 130.208 85.344h167.296v113.792h-167.296c-21.952 50.176-71.904 85.344-130.208 85.344z" />
<glyph unicode="&#xe97c;" glyph-name="filter_down" d="M0 704l512-512 512 512z" />
<glyph unicode="&#xe97d;" glyph-name="filter_up" d="M1024 192l-512 512-512-512z" />
<glyph unicode="&#xe97e;" glyph-name="filter" d="M297.536 226.144c-66.72 0-122.304-46.144-137.664-108.096h-159.872v-68.256h159.872c15.36-61.952 70.944-108.096 137.664-108.096s122.304 46.144 137.6 108.096h588.864v68.256h-588.864c-15.296 61.952-70.88 108.096-137.6 108.096zM297.536 9.952c-40.8 0-73.952 33.152-73.952 73.952s33.152 73.952 73.952 73.952c40.8 0 73.952-33.152 73.952-73.952s-33.152-73.952-73.952-73.952zM726.464 567.456c-66.72 0-122.304-46.144-137.6-108.096h-588.864v-68.256h588.864c15.36-61.952 70.944-108.096 137.6-108.096 66.72 0 122.304 46.144 137.664 108.096h159.872v68.256h-159.872c-15.36 61.952-70.944 108.096-137.664 108.096zM726.464 351.296c-40.8 0-73.952 33.152-73.952 73.952s33.152 73.952 73.952 73.952c40.8 0 73.952-33.152 73.952-73.952s-33.152-73.952-73.952-73.952zM435.136 800.704c-15.296 61.952-70.88 108.096-137.6 108.096s-122.304-46.144-137.664-108.096h-159.872v-68.256h159.872c15.36-61.952 70.944-108.096 137.664-108.096s122.304 46.144 137.6 108.096h588.864v68.256h-588.864zM297.536 692.608c-40.8 0-73.952 33.152-73.952 73.952s33.152 73.952 73.952 73.952c40.8 0 73.952-33.152 73.952-73.952s-33.152-73.952-73.952-73.952z" />
<glyph unicode="&#xe97f;" glyph-name="fx_active" d="M512 960c-178.176 0-334.976-91.136-426.656-229.216v166.624l-68.256-68.256v-210.496h85.44c67.008 160.192 225.28 273.056 409.472 273.056 244.672 0 443.744-199.040 443.744-443.744 0-29.184-3.008-57.696-8.416-85.344h69.248c4.768 27.776 7.456 56.192 7.456 85.344 0 282.752-229.216 512-512 512zM512 4.256c-244.672 0-443.744 199.040-443.744 443.744 0 29.184 3.008 57.696 8.416 85.344h-69.248c-4.768-27.776-7.456-56.192-7.456-85.344 0-282.752 229.216-512 512-512 178.176 0 334.976 91.136 426.656 229.216v-166.624l68.256 68.256v210.496h-85.44c-67.008-160.192-225.28-273.056-409.472-273.056zM512 89.6c197.92 0 358.4 160.48 358.4 358.4s-160.48 358.4-358.4 358.4-358.4-160.48-358.4-358.4 160.48-358.4 358.4-358.4zM640 248.896c-39.264 0-71.104 31.872-71.104 71.104s31.872 71.104 71.104 71.104 71.104-31.872 71.104-71.104c0-39.264-31.872-71.104-71.104-71.104zM643.936 640.352l60.352-60.352-324.256-324.256-60.352 60.352 324.256 324.256zM384 647.104c39.264 0 71.104-31.872 71.104-71.104s-31.872-71.104-71.104-71.104-71.104 31.872-71.104 71.104c0 39.264 31.872 71.104 71.104 71.104z" />
<glyph unicode="&#xe980;" glyph-name="fx" d="M512 960c-178.528 0-335.2-91.648-426.656-230.24v167.648l-68.256-68.256v-210.496h210.496l68.256 68.256h-156.608c79.008 122.816 216.224 204.8 372.8 204.8 244.672 0 443.744-199.040 443.744-443.744 0-35.264-4.608-69.472-12.416-102.4h70.368c6.72 33.12 10.304 67.296 10.304 102.4 0 282.784-229.216 512-512 512zM728.192 209.056h156.608c-78.976-122.816-216.224-204.8-372.8-204.8-244.672 0-443.744 199.040-443.744 443.744 0 35.264 4.608 69.472 12.416 102.4h-70.368c-6.72-33.12-10.304-67.296-10.304-102.4 0-282.784 229.216-512 512-512 178.528 0 335.2 91.648 426.656 230.24v-167.648l68.256 68.256v210.496h-210.496l-68.256-68.256zM319.872 207.744l432.352 432.352-48.288 48.256-432.352-432.352 48.288-48.256zM489.248 573.152c0 56.544-45.856 102.4-102.4 102.4s-102.4-45.856-102.4-102.4 45.856-102.4 102.4-102.4 102.4 45.856 102.4 102.4zM352.704 573.152c0 18.816 15.296 34.144 34.144 34.144s34.144-15.296 34.144-34.144-15.296-34.144-34.144-34.144-34.144 15.296-34.144 34.144zM534.752 322.848c0-56.544 45.856-102.4 102.4-102.4s102.4 45.856 102.4 102.4-45.856 102.4-102.4 102.4-102.4-45.856-102.4-102.4zM671.296 322.848c0-18.816-15.296-34.144-34.144-34.144s-34.144 15.296-34.144 34.144 15.296 34.144 34.144 34.144 34.144-15.296 34.144-34.144z" />
<glyph unicode="&#xe981;" glyph-name="global_active" d="M469.344 12.448v392.864h-196.608c11.104-175.488 88.288-323.584 196.608-392.864zM554.656 405.344v-392.864c108.32 69.28 185.504 217.376 196.608 392.864h-196.608zM469.344 490.656v392.864c-108.32-69.28-185.504-217.312-196.608-392.864h196.608zM836.736 490.656h185.12c-19.168 231.584-192.16 419.168-416.768 460.448 129.152-86.528 220.16-258.4 231.648-460.448zM836.736 405.344c-11.488-202.080-102.528-373.92-231.648-460.448 224.608 41.312 397.6 228.864 416.768 460.448h-185.12zM187.264 405.344h-185.12c19.168-231.584 192.16-419.168 416.768-460.448-129.152 86.528-220.16 258.4-231.648 460.448zM554.656 883.552v-392.864h196.608c-11.104 175.552-88.288 323.584-196.608 392.864zM187.264 490.656c11.488 202.080 102.528 373.92 231.648 460.448-224.608-41.312-397.6-228.864-416.768-460.448h185.12z" />
<glyph unicode="&#xe982;" glyph-name="global" d="M512 960c-282.784 0-512-229.216-512-512s229.216-512 512-512 512 229.216 512 512-229.216 512-512 512zM389.76 874.208c-91.424-88-152.736-229.728-160.48-392.064h-159.296c14.336 187.104 144.96 341.856 319.776 392.064zM69.984 413.856h159.296c7.744-162.368 69.056-304.064 160.48-392.064-174.816 50.24-305.44 204.96-319.776 392.064zM477.856 37.216c-100.288 66.944-171.392 208.896-180.096 376.672h180.096v-376.672zM477.856 482.144h-180.096c8.704 167.776 79.808 309.696 180.096 376.672v-376.672zM954.016 482.144h-159.296c-7.68 162.016-68.736 303.456-159.808 391.52 174.304-50.4 304.768-204.672 319.104-391.52zM546.144 37.216v376.672h180.096c-8.704-167.776-79.808-309.696-180.096-376.672zM546.144 482.144v376.672c100.288-66.944 171.392-208.896 180.096-376.704h-180.096zM634.944 22.368c91.072 88.064 152.128 229.504 159.808 391.52h159.296c-14.336-186.816-144.768-341.12-319.104-391.52z" />
<glyph unicode="&#xe983;" glyph-name="goals_active" d="M512 960c-282.784 0-512-229.216-512-512s229.216-512 512-512 512 229.216 512 512-229.216 512-512 512zM512 49.792c-219.584 0-398.208 178.624-398.208 398.208s178.624 398.208 398.208 398.208 398.208-178.624 398.208-398.208-178.624-398.208-398.208-398.208zM512 789.344c-188.544 0-341.344-152.864-341.344-341.344s152.8-341.344 341.344-341.344 341.344 152.864 341.344 341.344-152.8 341.344-341.344 341.344zM512 220.448c-125.504 0-227.552 102.048-227.552 227.552s102.048 227.552 227.552 227.552 227.552-102.048 227.552-227.552-102.048-227.552-227.552-227.552zM512 618.656c-94.272 0-170.656-76.416-170.656-170.656s76.416-170.656 170.656-170.656 170.656 76.416 170.656 170.656-76.416 170.656-170.656 170.656zM512 391.104c-31.36 0-56.896 25.536-56.896 56.896s25.536 56.896 56.896 56.896 56.896-25.536 56.896-56.896-25.536-56.896-56.896-56.896z" />
<glyph unicode="&#xe984;" glyph-name="goals" d="M512 960c-282.784 0-512-229.216-512-512s229.216-512 512-512 512 229.216 512 512-229.216 512-512 512zM512 4.256c-244.672 0-443.744 199.040-443.744 443.744s199.040 443.744 443.744 443.744 443.744-199.040 443.744-443.744-199.040-443.744-443.744-443.744zM512 789.344c-188.544 0-341.344-152.8-341.344-341.344s152.8-341.344 341.344-341.344 341.344 152.8 341.344 341.344-152.8 341.344-341.344 341.344zM512 174.944c-150.592 0-273.056 122.496-273.056 273.056s122.496 273.056 273.056 273.056 273.056-122.496 273.056-273.056-122.496-273.056-273.056-273.056zM512 618.656c-94.272 0-170.656-76.416-170.656-170.656s76.416-170.656 170.656-170.656 170.656 76.416 170.656 170.656-76.416 170.656-170.656 170.656zM512 345.6c-56.48 0-102.4 45.92-102.4 102.4s45.92 102.4 102.4 102.4 102.4-45.92 102.4-102.4-45.92-102.4-102.4-102.4z" />
<glyph unicode="&#xe985;" glyph-name="health_active" d="M945.504 814.944c-104.608 104.608-274.304 104.608-378.944 0-23.616-23.616-41.6-50.624-54.56-79.424-12.96 28.8-30.944 55.808-54.624 79.424-104.608 104.608-274.304 104.608-378.944 0s-104.608-274.272 0-378.88l433.536-433.44 433.504 433.504c104.672 104.576 104.672 274.208 0 378.816zM475.936 307.040l-170.336 170.336 60.352 60.352 110.016-110.016 235.872 235.872 60.352-60.352-296.288-296.16z" />
<glyph unicode="&#xe986;" glyph-name="health" d="M945.504 814.944c-52.352 52.352-120.896 78.464-189.44 78.464s-137.152-26.112-189.44-78.464c-23.68-23.616-41.632-50.624-54.624-79.424-12.96 28.8-30.944 55.808-54.624 79.424-52.288 52.352-120.896 78.496-189.44 78.496s-137.152-26.176-189.44-78.496c-104.608-104.608-104.608-274.272 0-378.88l433.504-433.504 433.504 433.504c104.672 104.608 104.672 274.272 0 378.88zM897.248 484.352l-385.248-385.248-385.248 385.248c-37.728 37.728-58.496 87.84-58.496 141.152 0 53.376 20.768 103.488 58.496 141.184s87.84 58.496 141.184 58.496 103.488-20.768 141.184-58.496c16.832-16.832 30.496-36.736 40.608-59.168l26.624-59.040h71.296l26.624 59.040c10.112 22.4 23.776 42.336 40.608 59.232 37.728 37.728 87.84 58.496 141.184 58.496s103.488-20.768 141.184-58.496c37.664-37.76 58.432-87.904 58.432-141.248 0-53.312-20.768-103.424-58.496-141.152zM492.096 417.504l-88.928 88.864-48.256-48.256 137.152-137.216 271.936 271.936-48.288 48.256-223.616-223.584z" />
<glyph unicode="&#xe987;" glyph-name="help_active" d="M512 960c-282.784 0-512-229.216-512-512s229.216-512 512-512 512 229.216 512 512-229.216 512-512 512zM511.936 135.104c-39.264 0-71.104 31.872-71.104 71.104s31.872 71.104 71.104 71.104 71.104-31.872 71.104-71.104-31.808-71.104-71.104-71.104zM638.4 474.048l-65.312-65.248c-9.888-9.952-9.888-13.664-9.888-18.304v-56.256h-102.4v56.256c0 45.408 22.752 73.504 39.808 90.688l65.408 65.312c17.696 17.632 25.44 42.144 21.28 67.36-4.896 29.92-28.896 55.136-58.304 61.28-23.84 4.96-46.88-0.448-65.152-15.36-17.984-14.56-28.288-36.192-28.288-59.232h-102.4c0 54.048 24.064 104.608 66.048 138.688 41.984 34.176 97.056 47.168 150.656 36.128 71.008-14.848 126.624-73.056 138.464-144.896 9.568-58.144-8.64-115.136-49.952-156.384z" />
<glyph unicode="&#xe988;" glyph-name="help" d="M512 960c-282.784 0-512-229.248-512-512s229.216-512 512-512 512 229.248 512 512-229.216 512-512 512zM512 4.256c-244.672 0-443.744 199.040-443.744 443.744s199.040 443.744 443.744 443.744 443.744-199.040 443.744-443.744-199.040-443.744-443.744-443.744zM511.936 248.896c-31.392 0-56.896-25.472-56.896-56.896s25.472-56.896 56.896-56.896c31.392 0 56.896 25.472 56.896 56.896s-25.44 56.896-56.896 56.896zM546.368 758.656c-48.576 10.016-98.368-1.696-136.352-32.64-37.952-30.88-59.744-76.64-59.744-125.504h68.256c0 28.224 12.576 54.656 34.528 72.544 22.304 18.080 50.464 24.864 79.424 18.784 36.192-7.552 65.664-38.528 71.68-75.264 5.056-30.592-4.448-60.544-26.048-82.080l-65.376-65.376c-14.976-15.072-34.88-39.552-34.88-78.624v-56.256h68.256v56.256c0 10.016 2.4 17.76 14.912 30.336l65.312 65.312c37.376 37.312 53.824 88.864 45.184 141.536-10.688 64.96-60.992 117.6-125.152 131.008z" />
<glyph unicode="&#xe989;" glyph-name="home_active" d="M512 960l-455.104-455.104v-568.896h398.208v341.344h113.792v-341.344h398.208v568.896z" />
<glyph unicode="&#xe98a;" glyph-name="home" d="M512 960l-455.104-455.104v-568.896h398.208v386.848h113.792v-386.848h398.208v568.896l-455.104 455.104zM898.848 4.256h-261.696v386.848h-250.304v-386.848h-261.696v472.352l386.848 386.848 386.848-386.848v-472.352z" />
<glyph unicode="&#xe98b;" glyph-name="insight_active" d="M284.448 220.448v-170.656l113.792-113.792h227.552l113.792 113.792v170.656zM862.88 764.544c-75.904 122.432-207.072 195.456-350.88 195.456-143.936 0-275.168-73.152-351.008-195.712-38.912-62.848-45.28-141.888-17.184-211.392l100-247.136h154.4v312.896c0 62.816 50.912 113.792 113.792 113.792 62.816 0 113.792-50.912 113.792-113.792v-312.896h154.4l99.968 247.296c28.16 69.568 21.728 148.704-17.248 211.456zM512 647.104c-15.712 0-28.448-12.736-28.448-28.448v-312.896h56.896v312.896c0 15.712-12.8 28.448-28.448 28.448z" />
<glyph unicode="&#xe98c;" glyph-name="insight" d="M862.88 764.544c-75.904 122.432-207.072 195.456-350.88 195.456-143.936 0-275.168-73.152-351.008-195.712-38.912-62.848-45.28-141.888-17.184-211.392l140.64-347.584v-155.52l113.792-113.792h227.552l113.792 113.792v155.52l140.576 347.776c28.16 69.568 21.728 148.704-17.248 211.456zM671.296 78.048l-73.792-73.792h-171.008l-73.792 73.792v142.4h318.592v-142.4zM557.504 288.704h-91.008v329.952c0 25.088 20.416 45.504 45.504 45.504s45.504-20.416 45.504-45.504v-329.952zM816.864 578.624l-117.184-289.92h-73.888v329.952c0 62.816-50.912 113.792-113.792 113.792s-113.792-50.912-113.792-113.792v-329.952h-73.888l-117.184 289.728c-20.032 49.504-15.584 105.536 11.904 149.952 63.328 102.272 172.832 163.392 292.992 163.392 120.032 0 229.504-60.992 292.864-163.2 27.52-44.384 31.968-100.416 12-149.952z" />
<glyph unicode="&#xe98d;" glyph-name="insurance_active" d="M869.024 814.976c-96.096 93.536-222.88 145.024-357.024 145.024s-260.96-51.488-357.024-145.024c-95.808-93.312-150.88-218.24-154.976-351.872v-72.032h20.608l39.552 48.864c27.52 32.416 67.584 50.976 109.92 50.976 53.248 0 102.016-29.248 127.264-76.288l12.672-23.552h30.72l14.272 19.68c29.696 40.736 74.176 67.2 122.88 76.064v-410.752c0-39.296-31.968-71.328-71.296-71.328s-71.296 31.968-71.296 71.328v30.56h-68.256v-30.56c0-76.96 62.624-139.552 139.552-139.552s139.552 62.592 139.552 139.552v410.848c48.8-8.768 93.408-35.104 123.168-75.776l14.688-20.096h29.92l12.96 24c25.312 46.816 73.952 75.904 127.040 75.904 42.368 0 82.432-18.592 109.92-50.976l39.584-48.928h20.608v72.032c-4.096 133.632-59.168 258.56-154.976 351.872zM693.696 486.4c-13.312 12.672-28.032 23.488-43.584 33.12-0.512 9.856-0.576 19.808-1.6 29.536-12 110.72-60.064 213.952-136.544 294.56-75.2-79.36-123.104-180.896-135.968-289.792-1.312-11.424-1.408-22.976-1.984-34.528-15.488-9.6-30.208-20.48-43.456-33.152-12.224 13.984-26.56 25.6-41.76 35.904 0.672 13.952 0.864 27.936 2.432 41.76 14.112 119.456 64.64 231.040 143.488 320.96 25.312 4.448 51.072 7.008 77.248 7.008 26.24 0 52-2.56 77.312-7.040 80.16-91.424 130.944-204.928 144.096-326.496 1.312-11.84 1.376-24 1.92-36.064-15.136-10.24-29.472-21.792-41.632-35.712z" />
<glyph unicode="&#xe98e;" glyph-name="insurance" d="M869.024 814.976c-96.096 93.536-222.88 145.024-357.024 145.024s-260.96-51.488-357.024-145.024c-95.808-93.312-150.88-218.24-154.976-351.872v-72.032h20.608l39.552 48.864c27.52 32.416 67.584 50.976 109.952 50.976 53.248 0 102.016-29.248 127.264-76.288l12.672-23.552h30.72l14.272 19.68c29.632 40.736 74.112 67.136 122.816 76.064v-410.752c0-39.296-31.968-71.328-71.296-71.328s-71.296 31.968-71.296 71.328v30.56h-68.256v-30.56c0-76.96 62.624-139.552 139.552-139.552s139.552 62.592 139.552 139.552v410.784c48.8-8.768 93.408-35.104 123.168-75.776l14.688-20.032h29.92l12.96 24c25.312 46.816 73.952 75.904 127.040 75.904 42.336 0 82.432-18.592 109.92-50.976l39.584-48.928h20.608v72.032c-4.096 133.632-59.168 258.56-154.976 351.872zM170.112 559.264c-32.544 0-64.16-7.456-92.832-21.504 17.76 86.4 60.928 165.6 125.312 228.288 67.648 65.824 152.96 107.136 244.896 120.48-81.472-89.824-133.472-202.752-147.744-323.744-1.76-15.136-2.048-30.432-2.688-45.696-36.064 26.912-80.32 42.144-126.976 42.144zM512.288 559.264c-53.024 0-104.096-16.672-147.104-45.856 0.512 13.824 0.8 27.712 2.4 41.472 13.44 113.728 64.384 219.424 144.512 300.992 81.344-82.88 132.48-190.336 145.024-305.888 1.312-11.904 1.472-24.128 1.92-36.224-42.944 28.96-93.856 45.504-146.72 45.504zM853.888 559.264c-46.528 0-90.784-15.2-126.816-42.048-0.576 13.44-0.736 26.912-2.176 40.064-13.376 123.104-65.536 237.952-148.32 329.28 91.872-13.376 177.152-54.656 244.8-120.48 64.64-62.912 107.872-142.464 125.568-228.224-28.672 13.952-60.352 21.44-93.056 21.44z" />
<glyph unicode="&#xe98f;" glyph-name="intranet" d="M938.656 874.656h-853.344c-46.944 0-85.344-38.4-85.344-85.344v-682.656c0-46.944 38.4-85.344 85.344-85.344h853.344c46.944 0 85.344 38.4 85.344 85.344v682.656c0 46.944-38.4 85.344-85.344 85.344zM284.448 89.6h-199.104c-9.28 0-17.056 7.808-17.056 17.056v540.448h216.192v-557.504zM955.744 106.656c0-9.28-7.808-17.056-17.056-17.056h-585.952v557.504h603.008v-540.448zM955.744 715.392h-887.456v73.952c0 9.28 7.808 17.056 17.056 17.056h853.344c9.28 0 17.056-7.808 17.056-17.056v-73.952zM684.416 185.12l93.824 46.976-56.896 113.6 58.656 29.344-211.104 158.272v-263.904l58.656 29.344 56.896-113.664z" />
<glyph unicode="&#xe990;" glyph-name="investment_active" d="M68.256 960h-68.256v-1024h1024v68.256h-955.744v955.744zM887.808 872.096l-410.176-410.24-157.408 157.472-166.624-166.624v-363.136h870.4v646.304l-136.192 136.192z" />
<glyph unicode="&#xe991;" glyph-name="investment_market_active" d="M68.256 960h-68.256v-1024h1024v68.256h-955.744v955.744zM887.456 931.552l-409.6-415.296-159.296 159.296-164.992-164.992v-244.608l358.4 153.6 227.552-96.704 284.448 284.448v187.744l-136.544 136.544zM512 328.544l-358.4-153.6v-85.344h870.4v392.544l-261.696-261.696-250.304 108.096z" />
<glyph unicode="&#xe992;" glyph-name="investment_market" d="M887.808 928.992l-410.176-410.24-157.408 157.472-183.68-183.68v-96.544l183.68 183.648 157.408-157.472 410.176 410.24 136.192-136.064v96.48l-136.192 136.192zM514.624 353.216l-378.080-160.416v-74.176l378.080 160.544 244.736-103.808 264.64 264.576v96.48l-280.352-280.352-229.024 97.152zM68.256 960h-68.256v-1024h1024v68.256h-955.744v955.744z" />
<glyph unicode="&#xe993;" glyph-name="investment_quote_active" d="M475.264 424.16l-157.408 157.408-164.224-164.288v-327.68h233.248v302.304l85.344-85.344v-216.96h233.248v444.064l85.344 85.344v-529.408h233.248v870.4l-548.736-535.84zM68.256 960h-68.256v-1024h1024v68.256h-955.744v955.744z" />
<glyph unicode="&#xe994;" glyph-name="investment_quote" d="M136.416 291.392l181.152 181.12 157.28-157.216 548.32 548.32v96.416l-548.32-548.256-157.28 157.28-181.152-181.216zM954.976 697.664v-693.44h-261.472v431.968l-68.224-68.224v-363.744h-227.392v290.304l-68.224 68.224v-358.528h-261.472v954.976h-68.224v-1023.2h1023.2v829.888z" />
<glyph unicode="&#xe995;" glyph-name="investment" d="M887.808 872.096l-410.176-410.24-157.408 157.472-183.68-183.68v-96.544l183.68 183.648 157.408-157.472 410.176 410.24 136.192-136.064v96.48l-136.192 136.192zM68.256 960h-68.256v-1024h1024v68.256h-955.744v955.744z" />
<glyph unicode="&#xe996;" glyph-name="link_active" d="M512.352 244.064l-156.96-156.96c-24.064-24.128-56.032-37.312-89.984-37.312s-65.92 13.184-89.952 37.248l-24.352 24.352c-24.064 24.064-37.312 55.968-37.312 89.984 0 33.952 13.248 65.92 37.248 89.984l170.88 170.848c25.76 23.104 74.88 58.592 152.352 39.872 0 0 33.856-6.816 62.304-25.376 33.664-21.952 76.672-31.168 109.216-11.936-10.624 19.072-22.976 37.376-39.136 53.536l-24.352 24.352c-47.040 47.104-108.768 70.592-170.432 70.592s-123.328-23.488-170.368-70.592l-170.88-170.848c-94.144-94.080-94.144-246.72 0-340.864l24.352-24.352c47.040-47.040 108.768-70.592 170.432-70.592s123.392 23.552 170.432 70.592l170.88 170.88c15.584 15.584 27.648 33.152 38.048 51.488-10.88-1.184-21.568-3.136-32.64-3.136-34.688 0-68.096 6.88-99.776 18.208zM953.408 865.056l-24.352 24.352c-47.040 47.040-108.768 70.592-170.432 70.592s-123.392-23.552-170.432-70.592l-170.848-170.88c-15.648-15.584-27.648-33.152-38.112-51.488 10.88 1.248 21.568 3.136 32.64 3.136 34.656 0 68.032-6.944 99.776-18.208l156.96 156.96c24.064 24.128 56.032 37.312 89.984 37.312s65.92-13.184 89.952-37.248l24.352-24.352c24.064-24.064 37.312-55.968 37.312-89.984 0-33.952-13.248-65.92-37.248-89.984l-170.88-170.848c-25.76-23.104-74.88-58.592-152.352-39.872 0 0-33.856 6.816-62.304 25.376-33.664 21.952-76.672 31.168-109.216 11.936 10.624-19.072 22.976-37.376 39.136-53.536l24.352-24.352c47.040-47.104 108.768-70.592 170.432-70.592s123.328 23.552 170.432 70.592l170.88 170.848c94.080 94.144 94.080 246.72-0.064 340.864z" />
<glyph unicode="&#xe997;" glyph-name="link" d="M561.152 229.888c-3.808-4.736-7.904-9.344-12.352-13.696l-161.344-161.344c-32.544-32.608-75.936-50.56-122.080-50.56s-89.472 17.984-122.144 50.56l-24.352 24.352c-67.36 67.36-67.36 176.928 0 244.288l161.344 161.344c32.608 32.64 76 50.56 122.144 50.56s89.536-17.984 122.144-50.56l24.352-24.352c3.2-3.2 6.144-6.496 9.056-9.856 18.208-14.112 40.384-21.856 63.776-21.856 9.216 0 18.272 1.312 26.912 3.584-11.712 27.712-28.832 53.696-51.488 76.352l-24.352 24.352c-47.040 47.104-108.768 70.656-170.432 70.656s-123.328-23.552-170.368-70.592l-161.344-161.344c-94.144-94.144-94.144-246.72 0-340.832l24.352-24.352c47.040-47.040 108.768-70.592 170.432-70.592s123.392 23.552 170.432 70.592l161.344 161.344c17.184 17.184 31.168 36.288 42.112 56.672-5.792-0.352-11.648-0.512-17.536-0.512-20.608-0.064-40.832 1.92-60.576 5.792zM953.408 865.056l-24.352 24.352c-47.040 47.040-108.768 70.592-170.432 70.592s-123.392-23.552-170.432-70.592l-161.28-161.344c-17.184-17.184-31.168-36.288-42.112-56.672 5.792 0.352 11.648 0.512 17.536 0.512 20.544 0 40.8-1.984 60.48-5.856 3.808 4.736 7.904 9.344 12.352 13.696l161.344 161.344c32.608 32.64 76 50.624 122.144 50.624s89.472-17.984 122.144-50.56l24.352-24.352c67.36-67.36 67.36-176.992 0-244.288l-161.344-161.344c-32.608-32.608-76-50.56-122.144-50.56s-89.536 17.984-122.144 50.56l-24.352 24.352c-3.2 3.136-6.144 6.432-8.992 9.792-18.208 14.112-40.384 21.856-63.776 21.856-9.216 0-18.272-1.312-26.912-3.584 11.712-27.776 28.832-53.76 51.488-76.352l24.352-24.352c47.040-47.040 108.704-70.592 170.432-70.592s123.328 23.552 170.432 70.592l161.344 161.344c94.048 94.080 94.048 246.656-0.128 340.832z" />
<glyph unicode="&#xe998;" glyph-name="liquidity_management_active" d="M281.6 448h187.744v-512h-187.744v512zM827.744 448h196.256v-512h-196.256v512zM0 675.552h196.256v-739.552h-196.256v739.552zM554.656 960h187.744v-1024h-187.744v1024z" />
<glyph unicode="&#xe999;" glyph-name="liquidity_management" d="M785.056 448v512h-307.2v-512h-170.656v227.552h-307.2v-739.552h1024v512h-238.944zM546.144 891.776h170.656v-887.584h-170.656v887.584zM477.856 379.776v-375.584h-170.656v375.584h170.656zM68.256 607.36h170.656v-603.136h-170.656v603.136zM955.744 4.224h-170.656v375.584h170.656v-375.584z" />
<glyph unicode="&#xe99a;" glyph-name="location_active" d="M668.448 533.344c0-86.4-70.048-156.448-156.448-156.448s-156.448 70.048-156.448 156.448c0 86.4 70.048 156.448 156.448 156.448s156.448-70.048 156.448-156.448zM809.696 835.744c-82.208 82.816-189.952 124.256-297.696 124.256s-215.488-41.408-297.696-124.256c-164.416-165.664-164.416-434.24 0-599.84l297.696-299.904 297.696 299.904c164.416 165.664 164.416 434.24 0 599.84zM512 291.552c-133.28 0-241.792 108.416-241.792 241.792s108.48 241.792 241.792 241.792 241.792-108.416 241.792-241.792-108.48-241.792-241.792-241.792z" />
<glyph unicode="&#xe99b;" glyph-name="location" d="M809.632 835.744c-82.144 82.816-189.888 124.256-297.632 124.256s-215.488-41.408-297.696-124.256c-164.416-165.664-164.416-434.24 0-599.84l297.696-299.904 297.632 299.904c164.416 165.664 164.416 434.24 0 599.84zM761.216 284l-249.216-251.104-249.216 251.104c-137.856 138.88-137.856 364.832 0 503.68 66.624 67.136 155.072 104.064 249.216 104.064 94.080 0 182.624-36.928 249.216-104.064 137.792-138.88 137.792-364.832 0-503.68zM512 766.592c-128.64 0-233.248-104.608-233.248-233.248s104.608-233.248 233.248-233.248 233.248 104.608 233.248 233.248-104.608 233.248-233.248 233.248zM512 368.352c-90.976 0-164.992 74.080-164.992 164.992s74.016 164.992 164.992 164.992 164.992-74.080 164.992-164.992-74.016-164.992-164.992-164.992z" />
<glyph unicode="&#xe99c;" glyph-name="memo" d="M804.928 846.208c1.312-9.376 2.912-18.72 2.912-28.448 0-13.664-1.536-26.912-4.032-39.808h95.072v-557.504h-216.192v-216.192h-557.504v773.696h265.728c-2.496 12.928-4.032 26.176-4.032 39.808 0 9.728 1.6 19.072 2.912 28.448h-332.864v-910.208h694.048l216.192 216.192v694.048h-162.176zM750.944 32.544v119.648h119.648l-119.648-119.648zM374.112 642.784l48.288-48.256 101.824 101.824c21.376-12.928 46.24-20.832 73.088-20.832 78.56 0 142.208 63.648 142.208 142.208s-63.648 142.208-142.208 142.208-142.208-63.648-142.208-142.208c0-26.848 7.904-51.712 20.832-73.088l-101.824-101.888zM597.344 891.744c40.8 0 73.952-33.152 73.952-73.952s-33.152-73.952-73.952-73.952-73.952 33.152-73.952 73.952 33.152 73.952 73.952 73.952z" />
<glyph unicode="&#xe99d;" glyph-name="menu_active" d="M56.896-7.104h910.208v113.792h-910.208v-113.792zM56.896 903.104v-113.792h910.208v113.792h-910.208zM56.896 391.104h910.208v113.792h-910.208v-113.792z" />
<glyph unicode="&#xe99e;" glyph-name="menu_more_horizontal_active" d="M113.792 561.792c-62.816 0-113.792-50.976-113.792-113.792s50.976-113.792 113.792-113.792 113.792 50.976 113.792 113.792-50.976 113.792-113.792 113.792zM910.208 561.792c-62.816 0-113.792-50.976-113.792-113.792s50.976-113.792 113.792-113.792 113.792 50.976 113.792 113.792-50.976 113.792-113.792 113.792zM512 561.792c-62.816 0-113.792-50.976-113.792-113.792s50.976-113.792 113.792-113.792 113.792 50.976 113.792 113.792-50.976 113.792-113.792 113.792z" />
<glyph unicode="&#xe99f;" glyph-name="menu_more_horizontal" d="M85.344 533.344c-47.104 0-85.344-38.24-85.344-85.344s38.24-85.344 85.344-85.344 85.344 38.176 85.344 85.344-38.24 85.344-85.344 85.344zM938.656 533.344c-47.104 0-85.344-38.24-85.344-85.344s38.24-85.344 85.344-85.344 85.344 38.176 85.344 85.344-38.24 85.344-85.344 85.344zM512 533.344c-47.104 0-85.344-38.24-85.344-85.344s38.24-85.344 85.344-85.344 85.344 38.24 85.344 85.344-38.24 85.344-85.344 85.344z" />
<glyph unicode="&#xe9a0;" glyph-name="menu_more_vertical_active" d="M512 732.448c62.816 0 113.792 50.976 113.792 113.792s-50.976 113.792-113.792 113.792c-62.848 0-113.792-50.976-113.792-113.792s50.912-113.792 113.792-113.792zM512 163.552c-62.848 0-113.792-50.976-113.792-113.792s50.912-113.792 113.792-113.792c62.816 0 113.792 50.976 113.792 113.792s-50.976 113.792-113.792 113.792zM512 561.792c-62.848 0-113.792-50.976-113.792-113.792s50.912-113.792 113.792-113.792c62.816 0 113.792 50.976 113.792 113.792s-50.976 113.792-113.792 113.792z" />
<glyph unicode="&#xe9a1;" glyph-name="menu_more_vertical" d="M512 789.344c47.104 0 85.344 38.24 85.344 85.344s-38.24 85.344-85.344 85.344c-47.168 0-85.344-38.24-85.344-85.344s38.176-85.344 85.344-85.344zM512 106.656c-47.168 0-85.344-38.24-85.344-85.344s38.176-85.344 85.344-85.344c47.104 0 85.344 38.24 85.344 85.344s-38.24 85.344-85.344 85.344zM512 533.344c-47.168 0-85.344-38.24-85.344-85.344s38.176-85.344 85.344-85.344c47.104 0 85.344 38.24 85.344 85.344s-38.24 85.344-85.344 85.344z" />
<glyph unicode="&#xe9a2;" glyph-name="menu" d="M56.896-7.104h910.208v68.256h-910.208v-68.256zM56.896 903.104v-68.256h910.208v68.256h-910.208zM56.896 413.856h910.208v68.256h-910.208v-68.256z" />
<glyph unicode="&#xe9a3;" glyph-name="new_modal" d="M671.296 61.152h-546.144v546.144h147.904v68.256h-216.192v-682.656h682.656v216.192h-68.256v-147.904zM898.848 345.6h-489.248v489.248h159.296v68.256h-227.552v-625.792h625.792v227.552h-68.256v-159.296zM651.936 539.712l246.912 246.912v-216.64l68.256 68.256v264.864h-264.928l-68.224-68.224h216.704l-246.944-246.944 48.256-48.256z" />
<glyph unicode="&#xe9a4;" glyph-name="new_window" d="M898.848 61.152h-773.696v773.696h386.848v68.256h-455.104v-910.208h910.208v455.104h-68.256v-386.848zM595.072 482.816l303.776 303.776v-273.536l68.256 68.256v321.76h-321.824l-68.224-68.224h273.568l-303.84-303.84 48.256-48.256z" />
<glyph unicode="&#xe9a5;" glyph-name="newspaper" d="M56.896 960v-1024h910.208v1024h-910.208zM898.848 4.256h-773.696v887.456h773.696v-887.456zM455.104 482.144h-227.552v-68.256h227.552v68.256zM455.104 174.944h-227.552v-68.256h227.552v68.256zM455.104 328.544h-227.552v-68.256h227.552v68.256zM568.896 106.656h227.552v375.456h-227.552v-375.456zM637.152 413.856h91.008v-238.944h-91.008v238.944zM796.448 789.344h-568.896v-68.256h568.896v68.256zM796.448 635.744h-568.896v-68.256h568.896v68.256z" />
<glyph unicode="&#xe9a6;" glyph-name="online_banking" d="M967.104 192v625.792c0 62.848-50.976 113.792-113.792 113.792h-682.656c-62.816 0-113.792-50.912-113.792-113.792v-625.792h-56.896v-113.792c0-62.848 50.976-113.792 113.792-113.792h796.448c62.816 0 113.792 50.912 113.792 113.792v113.792h-56.896zM125.152 817.792c0 25.088 20.416 45.504 45.504 45.504h682.656c25.088 0 45.504-20.416 45.504-45.504v-625.792h-773.696v625.792zM955.744 78.208c0-25.088-20.416-45.504-45.504-45.504h-796.448c-25.088 0-45.504 20.416-45.504 45.504v45.504h887.456v-45.504zM398.208 704v-263.904l58.656 29.344 56.896-113.664 93.824 46.976-56.896 113.6 58.656 29.344-211.104 158.272z" />
<glyph unicode="&#xe9a7;" glyph-name="payment_active" d="M512 960c-282.784 0-512-229.216-512-512 0-282.752 229.216-512 512-512s512 229.248 512 512c0 282.784-229.216 512-512 512zM739.552 391.104l-1.696-1.696-183.168 183.168v-409.024h-85.344v408.96l-183.168-183.168-1.696 1.76v117.248l227.552 227.552 227.552-227.552v-117.248z" />
<glyph unicode="&#xe9a8;" glyph-name="payment_by_alias_active" d="M455.104 960h-398.208v-398.208h398.208v398.208zM625.792 960v-398.208h398.208v398.208h-398.208zM625.792-7.104h398.208v398.208h-398.208v-398.208zM284.448 504.896c-157.056 0-284.448-127.36-284.448-284.448s127.36-284.448 284.448-284.448 284.448 127.36 284.448 284.448-127.36 284.448-284.448 284.448zM426.656 160.096l-99.552 99.552v-215.616h-85.344v215.616l-99.552-99.552v120.672l142.208 142.208 142.208-142.208v-120.672z" />
<glyph unicode="&#xe9a9;" glyph-name="payment_by_alias" d="M455.104 960h-398.208v-398.208h398.208v398.208zM386.848 630.048h-261.696v261.696h261.696v-261.696zM625.792 960v-398.208h398.208v398.208h-398.208zM955.744 630.048h-261.696v261.696h261.696v-261.696zM625.792-7.104h398.208v398.208h-398.208v-398.208zM694.048 322.848h261.696v-261.696h-261.696v261.696zM284.448 504.896c-157.056 0-284.448-127.36-284.448-284.448s127.36-284.448 284.448-284.448 284.448 127.36 284.448 284.448-127.36 284.448-284.448 284.448zM284.448 4.256c-119.168 0-216.192 96.992-216.192 216.192s96.992 216.192 216.192 216.192 216.192-96.992 216.192-216.192-96.992-216.192-216.192-216.192zM142.208 240.256v-96.544l108.096 108.096v-179.264h68.256v179.264l108.096-108.096v96.544l-142.208 142.272-142.208-142.272z" />
<glyph unicode="&#xe9aa;" glyph-name="payment_direct_debit" d="M512 846.208c-282.784 0-512-178.304-512-398.208s229.216-398.208 512-398.208 512 178.304 512 398.208c0 219.936-229.216 398.208-512 398.208zM674.432 140.512c-102.4-24.192-233.984-19.84-321.536 1.312-112.416 27.2-240.352 86.592-239.104 216.224 1.248 127.2 154.624 221.184 457.056 221.184v227.552c148.352 0 339.392-150.912 339.392-358.784 0-186.208-122.752-280.8-235.808-307.488zM300.672 339.104c0-102.336 118.848-185.344 265.376-185.344v370.688c-146.56 0-265.376-83.008-265.376-185.344z" />
<glyph unicode="&#xe9ab;" glyph-name="payment_international_active" d="M469.344 490.656v392.864c-108.32-69.28-185.504-217.312-196.608-392.864h196.608zM837.76 490.656h184.16c-19.104 230.848-191.104 418.080-414.656 460.128 128.352-86.816 219.136-258.72 230.528-460.128zM554.656 883.552v-392.864h196.608c-11.104 175.552-88.288 323.584-196.608 392.864zM2.176 405.344c20.608-248.672 218.496-446.624 467.168-467.168v293.024l-126.304-126.304-1.696 1.76v117.248l170.656 170.656 170.656-170.656v-117.248l-1.696-1.696-126.304 126.304v-293.024c248.672 20.544 446.624 218.496 467.168 467.168h-1019.68zM186.24 490.656c11.392 201.376 102.176 373.312 230.528 460.128-223.584-42.112-395.552-229.248-414.656-460.128h184.16z" />
<glyph unicode="&#xe9ac;" glyph-name="payment_international" d="M512 960c-282.784 0-512-229.216-512-512s229.216-512 512-512 512 229.216 512 512c0 282.784-229.216 512-512 512zM954.016 482.144h-159.296c-7.744 162.368-69.056 304.064-160.48 392.064 174.816-50.24 305.44-204.96 319.776-392.064zM477.856 858.784v-376.672h-180.096c8.704 167.776 79.808 309.696 180.096 376.672zM546.144 858.784c100.288-66.944 171.392-208.896 180.096-376.704h-180.096v376.704zM389.76 874.208c-91.424-88-152.736-229.728-160.48-392.064h-159.296c14.336 187.104 144.96 341.856 319.776 392.064zM546.144 5.984v245.824l136.544-136.544v96.48l-170.656 170.656-170.656-170.656v-96.48l136.544 136.544v-245.824c-217.44 16.672-391.232 190.464-407.904 407.904h884.064c-16.672-217.44-190.464-391.168-407.904-407.904z" />
<glyph unicode="&#xe9ad;" glyph-name="payment_person_active" d="M1017.504 49.792l-98.976 245.024c-10.816 26.752-25.824 50.048-44.608 69.472-31.232 32.128-68.96 58.656-112.064 78.784l-21.344 9.952-16.896-16.448c-30.080-29.344-65.824-47.84-106.336-55.968 23.424-48.512 36.992-102.688 36.992-160.096 0-61.568-15.36-119.584-42.112-170.656h405.344zM762.080 731.808c0 138.624-75.776 228.192-192.96 228.192-117.76 0-193.888-89.536-193.888-228.192 0-118.624 59.968-238.24 193.888-238.24 132.544 0 192.96 123.52 192.96 238.24zM284.448 504.896c-157.056 0-284.448-127.36-284.448-284.448s127.36-284.448 284.448-284.448 284.448 127.36 284.448 284.448-127.36 284.448-284.448 284.448zM426.656 131.648l-99.552 99.552v-158.72h-85.344v158.72l-99.552-99.552v120.672l142.208 142.208 142.208-142.208v-120.672z" />
<glyph unicode="&#xe9ae;" glyph-name="payment_person" d="M762.080 731.808c0 138.624-75.776 228.192-192.96 228.192-117.76 0-193.888-89.536-193.888-228.192 0-118.624 59.968-238.24 193.888-238.24 132.544 0 192.96 123.52 192.96 238.24zM569.12 561.792c-92.736 0-125.6 91.584-125.6 170.048 0 37.504 9.056 159.968 125.6 159.968 115.712 0 124.704-122.432 124.704-159.968 0-63.136-26.272-170.048-124.704-170.048zM592.896 49.792h424.608l-98.976 245.024c-10.816 26.752-25.824 50.048-44.608 69.472-31.232 32.128-68.96 58.656-112.064 78.784l-21.344 9.952-16.896-16.448c-34.368-33.504-76.224-52.512-124.128-58.304 10.464-20.832 18.88-42.784 25.088-65.664 47.68 8.576 91.2 28.16 128.288 58.592 27.296-15.008 51.552-33.216 72.128-54.4 12.576-13.024 22.752-29.024 30.336-47.552l61.056-151.168h-294.4c-7.392-24-17.12-46.816-29.056-68.32zM142.208 240.256v-96.544l108.096 108.096v-179.264h68.256v179.264l108.096-108.096v96.544l-142.208 142.272-142.208-142.272zM284.448 504.896c-157.056 0-284.448-127.36-284.448-284.448s127.36-284.448 284.448-284.448 284.448 127.36 284.448 284.448-127.36 284.448-284.448 284.448zM284.448 4.256c-119.168 0-216.192 96.992-216.192 216.192s96.992 216.192 216.192 216.192 216.192-96.992 216.192-216.192-96.992-216.192-216.192-216.192z" />
<glyph unicode="&#xe9af;" glyph-name="payment_scheduled_active" d="M512 4.256c-244.672 0-443.744 199.040-443.744 443.744s199.040 443.744 443.744 443.744v68.256c-282.784 0-512-229.216-512-512s229.216-512 512-512 512 229.216 512 512h-68.256c0-244.672-199.040-443.744-443.744-443.744zM682.656 846.208c31.392 0 56.896 25.472 56.896 56.896s-25.472 56.896-56.896 56.896-56.896-25.472-56.896-56.896 25.472-56.896 56.896-56.896zM910.208 597.504c0-31.392 25.472-56.896 56.896-56.896s56.896 25.472 56.896 56.896-25.472 56.896-56.896 56.896-56.896-25.44-56.896-56.896zM876.096 743.808c31.392 0 56.896 25.44 56.896 56.896 0 31.392-25.472 56.896-56.896 56.896s-56.896-25.472-56.896-56.896c0-31.456 25.472-56.896 56.896-56.896zM142.208 448c0-204.224 165.536-369.792 369.792-369.792s369.792 165.536 369.792 369.792-165.536 369.792-369.792 369.792-369.792-165.536-369.792-369.792zM739.552 391.104l-1.696-1.696-183.168 183.168v-409.024h-85.344v408.96l-183.168-183.168-1.696 1.76v117.248l227.552 227.552 227.552-227.552v-117.248z" />
<glyph unicode="&#xe9b0;" glyph-name="payment_scheduled" d="M512 4.256c-244.672 0-443.744 199.040-443.744 443.744s199.040 443.744 443.744 443.744v68.256c-282.784 0-512-229.216-512-512s229.216-512 512-512 512 229.216 512 512h-68.256c0-244.672-199.040-443.744-443.744-443.744zM682.656 846.208c31.392 0 56.896 25.472 56.896 56.896s-25.472 56.896-56.896 56.896-56.896-25.472-56.896-56.896c0-31.392 25.472-56.896 56.896-56.896zM910.208 597.504c0-31.392 25.472-56.896 56.896-56.896s56.896 25.472 56.896 56.896c0 31.392-25.472 56.896-56.896 56.896s-56.896-25.472-56.896-56.896zM876.096 743.808c31.392 0 56.896 25.472 56.896 56.896s-25.472 56.896-56.896 56.896c-31.392 0-56.896-25.472-56.896-56.896s25.472-56.896 56.896-56.896zM546.144 163.552v429.568l193.408-193.376v96.48l-227.552 227.552-227.552-227.552v-96.48l193.408 193.376v-429.568h68.256z" />
<glyph unicode="&#xe9b1;" glyph-name="payment" d="M512 960c-282.784 0-512-229.216-512-512s229.216-512 512-512 512 229.216 512 512-229.216 512-512 512zM512 4.256c-244.672 0-443.744 199.040-443.744 443.744s199.040 443.744 443.744 443.744c244.672 0 443.744-199.040 443.744-443.744s-199.040-443.744-443.744-443.744zM284.448 496.256v-96.48l193.408 193.376v-429.568h68.256v429.568l193.408-193.376v96.48l-227.552 227.552-227.552-227.552z" />
<glyph unicode="&#xe9b2;" glyph-name="payments_and_transfers_active" d="M512 960c-282.784 0-512-229.216-512-512s229.216-512 512-512 512 229.216 512 512-229.216 512-512 512zM499.264 496.864l50.688-16.256v0.064c56.192-17.472 160.768-49.888 160.768-165.088 0-87.168-61.088-149.344-156.096-164.928v-100.864h-85.344v99.328c-95.872 11.776-154.784 68.992-156.096 155.648l85.344 1.184c0.672-49.088 37.152-74.080 108.32-74.080 27.808 0 118.496 6.016 118.496 83.616 0 40.608-22.592 59.328-100.704 83.584l-0.288 0.16-50.688 16.256c-55.872 17.248-160.416 49.728-160.416 164.928 0 87.168 61.088 149.344 156.096 164.928v100.864h85.344v-99.328c95.872-11.776 154.784-68.992 156.096-155.648l-85.344-1.184c-0.672 49.088-37.152 74.080-108.32 74.080-27.808 0-118.496-6.016-118.496-83.616-0.064-40.672 22.528-59.392 100.64-83.616z" />
<glyph unicode="&#xe9b3;" glyph-name="payments_and_transfers" d="M512 960c-282.784 0-512-229.216-512-512s229.216-512 512-512 512 229.216 512 512-229.216 512-512 512zM512 4.256c-244.672 0-443.744 199.040-443.744 443.744s199.040 443.744 443.744 443.744c244.672 0 443.744-199.040 443.744-443.744s-199.040-443.744-443.744-443.744zM515.648 598.656c72.992 0 73.504-37.024 73.664-49.28l68.256 1.024c-0.864 63.040-42.784 105.088-111.456 114.464v67.584h-68.256v-69.184c-67.872-12.224-111.488-57.472-111.488-120.672 0-84.992 76.352-108.672 117.12-121.344l36.48-11.648c54.432-16.896 69.344-29.024 69.344-56.192 0-52-61.952-56.032-80.96-56.032-72.992 0-73.504 37.024-73.664 49.28l-68.32-1.024c0.896-63.040 42.848-105.088 111.456-114.464v-67.584h68.256v69.184c67.872 12.224 111.456 57.472 111.456 120.672 0 84.992-76.352 108.672-117.376 121.472l-36.192 11.552c-54.432 16.896-69.344 29.024-69.344 56.192 0.064 52 62.016 56.032 81.024 56.032z" />
</font>
</defs>
</svg>
